<?xml version="1.0" standalone="no"?> <!DOCTYPE svg PUBLIC "-//W3C//DTD SVG 1.0//EN" "http://www.w3.org/TR/2001/REC-SVG-20010904/DTD/svg10.dtd" > <svg xmlns="http://www.w3.org/2000/svg" width="100%" height="100%">
<defs >
<font id="helveticalt57condensed0" horiz-adv-x="371" ><font-face
    font-family="HelveticaNeueLT-Condensed"
    units-per-em="1000"
    panose-1="0 0 4 0 0 0 0 0 0 0"
    ascent="932"
    descent="-212"
    alphabetic="0" />
<missing-glyph horiz-adv-x="500" d="M63 0V806H438V0H63ZM125 63H375V744H125V63Z" />
<glyph unicode=" " glyph-name="space" horiz-adv-x="240" />
<glyph unicode="!" glyph-name="exclam" horiz-adv-x="258" d="M99 186L83 714H175L159 186H99ZM83 0V96H175V0H83Z" />
<glyph unicode="&quot;" glyph-name="quotedbl" horiz-adv-x="407" d="M87 460V714H153V460H87ZM254 460V714H320V460H254Z" />
<glyph unicode="#" glyph-name="numbersign" horiz-adv-x="480" d="M79 0L105 205H23V271H113L132 425H45V491H141L166 694H232L207 491H313L338 694H404L379 491H457V425H370L351 271H434V205H343L317 0H251L277 205H171L145 0H79ZM198 425L179 271H285L304 425H198Z" />
<glyph unicode="$" glyph-name="dollar" horiz-adv-x="480" d="M259 306V58Q306 62 336 95T367 179Q367 266 259 306ZM217 405V636Q122 624 122 525Q122 442 217 405ZM217 708V766H259V708Q436 699 439 514H351Q351 627 259 636V391Q364 356 394 334Q459 287 459
193Q459 90 395 36Q343 -9 259 -14V-108H217V-14Q109 -10 62 51Q21 105 21 218H109Q109 146 124 114Q147 65 217 58V320Q125 350 90 378Q30 425 30 516Q30 584 63 632Q111 701 217 708Z" />
<glyph unicode="%" glyph-name="percent" horiz-adv-x="759" d="M177 378Q215 378 228 416Q236 443 236 516Q236 589 228 616Q215 654 177 654Q139 654 127 616Q118 589 118 516Q118 443 127 416Q139 378 177 378ZM186 -14L496 708H566L256 -14H186ZM582 40Q620
40 633 78Q641 105 641 178Q641 251 633 278Q620 316 582 316Q544 316 532 278Q523 251 523 178Q523 105 532 78Q544 40 582 40ZM177 324Q96 324 67 383Q46 424 46 516Q46 608 67 650Q96 708 177 708Q258 708 287 650Q308 608 308 516Q308 424 287 383Q258 324
177 324ZM582 -14Q501 -14 472 45Q451 86 451 178Q451 270 472 312Q501 370 582 370Q663 370 692 312Q713 270 713 178Q713 86 692 45Q663 -14 582 -14Z" />
<glyph unicode="&amp;" glyph-name="ampersand" horiz-adv-x="556" d="M238 453L257 471Q290 502 301 518Q321 546 321 578Q321 609 301 628T249 648Q217 648 198 629T178 578Q178 538 221 477L238 453ZM372 127L215 354Q113 293 113 191Q113 128 151 93T244 58Q312
58 372 127ZM275 400L416 198Q437 253 444 337H522Q522 296 503 227Q484 154 464 129L556 0H461L413 67Q368 24 333 7Q291 -14 237 -14Q122 -14 66 61Q25 115 25 184Q25 296 122 369L174 408L152 444Q100 529 100 574Q100 636 143 675T248 714Q399 714 399 578Q399
531 368 489Q348 462 301 422L275 400Z" />
<glyph unicode="&apos;" glyph-name="quotesingle" horiz-adv-x="240" d="M87 460V714H153V460H87Z" />
<glyph unicode="(" glyph-name="parenleft" horiz-adv-x="241" d="M189 714H237Q127 533 127 265Q127 29 237 -184H189Q43 16 43 265Q43 514 189 714Z" />
<glyph unicode=")" glyph-name="parenright" horiz-adv-x="241" d="M52 -184H4Q114 -3 114 265Q114 501 4 714H52Q198 514 198 265Q198 16 52 -184Z" />
<glyph unicode="*" glyph-name="asterisk" horiz-adv-x="352" d="M146 595V714H206V595L313 636L335 578L222 544L298 450L248 413L176 515L104 413L54 450L130 544L17 578L39 636L146 595Z" />
<glyph unicode="+" glyph-name="plus" horiz-adv-x="600" d="M267 0V220H47V286H267V506H333V286H553V220H333V0H267Z" />
<glyph unicode="," glyph-name="comma" horiz-adv-x="240" d="M74 0V106H166V19Q166 -51 152 -84Q132 -132 74 -148V-101Q118 -80 118 -24V0H74Z" />
<glyph unicode="-" glyph-name="hyphenminus" horiz-adv-x="600" d="M47 220V286H553V220H47Z" />
<glyph unicode="." glyph-name="period" horiz-adv-x="240" d="M74 0V106H166V0H74Z" />
<glyph unicode="/" glyph-name="slash" horiz-adv-x="278" d="M-10 -14L222 728H288L56 -14H-10Z" />
<glyph unicode="0" glyph-name="zero" horiz-adv-x="480" d="M240 -14Q112 -14 67 102Q38 178 38 344Q38 506 67 585Q113 708 240 708Q368 708 413 591Q442 515 442 344Q442 187 413 109Q366 -14 240 -14ZM126 344Q126 202 143 142Q167 52 240 52Q313 52 338 142Q354
202 354 344Q354 491 338 552Q313 642 240 642Q167 642 143 552Q126 491 126 344Z" />
<glyph unicode="1" glyph-name="one" horiz-adv-x="480" d="M67 532V592Q151 597 186 614Q239 641 242 708H302V0H218V532H67Z" />
<glyph unicode="2" glyph-name="two" horiz-adv-x="480" d="M438 78V0H42Q42 161 195 290L253 339Q301 380 322 413Q347 455 347 509Q347 561 324 595Q297 636 244 636Q132 636 132 483H44Q44 708 245 708Q353 708 402 637Q435 588 435 519Q435 443 402 388Q376
343 311 286L211 199Q148 144 134 78H438Z" />
<glyph unicode="3" glyph-name="three" horiz-adv-x="480" d="M180 333V399H224Q278 399 306 435Q332 468 332 524Q332 642 240 642Q138 642 138 504H50Q50 599 95 651Q143 708 238 708Q338 708 385 646Q420 598 420 524Q420 468 393 428Q363 385 310 372V370Q441
344 441 205Q441 105 392 47Q339 -14 240 -14Q119 -14 68 73Q39 123 39 183V192H127Q127 136 153 98Q184 52 240 52Q353 52 353 198Q353 333 225 333H180Z" />
<glyph unicode="4" glyph-name="four" horiz-adv-x="480" d="M284 570L106 243H286V570H284ZM30 250L286 708H370V243H450V171H370V0H286V171H30V250Z" />
<glyph unicode="5" glyph-name="five" horiz-adv-x="480" d="M58 331L97 694H413V616H164L136 411L138 409Q182 462 262 462Q343 462 391 401T440 229Q440 122 393 58Q339 -14 234 -14Q124 -14 74 63Q40 114 40 182H128Q128 137 147 103Q175 52 236 52Q352 52
352 236Q352 303 326 345Q296 396 234 396Q193 396 161 368Q134 344 134 327L58 331Z" />
<glyph unicode="6" glyph-name="six" horiz-adv-x="480" d="M429 538H341Q341 584 317 613T248 642Q173 642 141 549Q123 496 123 429V373H125Q168 452 260 452Q350 452 399 390Q445 331 445 228Q445 121 395 56Q341 -14 245 -14Q115 -14 67 99Q35 173 35 322Q35
493 66 576Q114 708 250 708Q356 708 401 635Q429 591 429 538ZM133 216Q133 149 156 106Q185 52 245 52Q305 52 334 106Q357 149 357 216Q357 380 245 380Q133 380 133 216Z" />
<glyph unicode="7" glyph-name="seven" horiz-adv-x="480" d="M38 616V694H442V621Q358 511 303 378Q222 183 206 0H108Q128 163 195 325Q261 484 362 616H38Z" />
<glyph unicode="8" glyph-name="eight" horiz-adv-x="480" d="M37 195Q37 336 162 377Q59 419 59 528Q59 613 107 660T240 708Q324 708 372 661T421 528Q421 419 318 377Q443 336 443 195Q443 111 401 56Q348 -14 240 -14Q132 -14 79 56Q37 111 37 195ZM240 642Q147
642 147 526Q147 410 240 410Q333 410 333 526Q333 642 240 642ZM125 198Q125 52 240 52Q355 52 355 198Q355 344 240 344Q125 344 125 198Z" />
<glyph unicode="9" glyph-name="nine" horiz-adv-x="480" d="M51 156H139Q139 111 163 82T232 52Q307 52 339 145Q357 199 357 265V321H355Q312 242 220 242Q130 242 81 304Q35 363 35 466Q35 573 86 638Q139 708 235 708Q365 708 414 595Q445 521 445 372Q445
201 414 118Q366 -14 230 -14Q124 -14 79 59Q51 103 51 156ZM347 478Q347 545 324 588Q295 642 235 642Q175 642 146 588Q123 545 123 478Q123 314 235 314Q347 314 347 478Z" />
<glyph unicode=":" glyph-name="colon" horiz-adv-x="240" d="M74 400V506H166V400H74ZM74 0V106H166V0H74Z" />
<glyph unicode=";" glyph-name="semicolon" horiz-adv-x="240" d="M74 0V106H166V19Q166 -51 152 -84Q132 -132 74 -148V-101Q118 -80 118 -24V0H74ZM74 400V506H166V400H74Z" />
<glyph unicode="&lt;" glyph-name="less" horiz-adv-x="600" d="M47 223V283L553 514V448L125 253L553 58V-8L47 223Z" />
<glyph unicode="=" glyph-name="equal" horiz-adv-x="600" d="M47 322V388H553V322H47ZM47 118V184H553V118H47Z" />
<glyph unicode="&gt;" glyph-name="greater" horiz-adv-x="600" d="M47 -8V58L475 253L47 448V514L553 283V223L47 -8Z" />
<glyph unicode="?" glyph-name="question" horiz-adv-x="444" d="M119 504H35Q35 599 80 657Q129 722 221 722Q309 722 359 670T409 534Q409 454 359 393Q324 355 281 305Q249 265 249 205V186H171Q171 273 190 309Q204 335 240 378Q266 407 291 437Q321 476 321
539Q321 586 297 617Q270 650 224 650Q119 650 119 504ZM165 0V96H257V0H165Z" />
<glyph unicode="@" glyph-name="at" horiz-adv-x="800" d="M240 293Q240 251 266 224T334 197Q398 197 446 275Q489 343 489 409Q489 446 468 476Q444 509 408 509Q339 509 288 436Q240 368 240 293ZM524 487L546 550H602L518 268Q509 238 509 223Q509 197 538
197Q605 197 655 263T705 415Q705 527 618 597T400 668Q271 668 183 578T95 357Q95 224 183 135T400 46Q589 46 671 157H734Q635 -14 400 -14Q246 -14 138 94T29 357Q29 511 137 619T400 728Q562 728 666 641T771 419Q771 296 686 213Q609 137 513 137Q450 137
443 196H441Q384 137 316 137Q259 137 218 179Q174 222 174 287Q174 396 238 480Q307 569 408 569Q494 569 522 487H524Z" />
<glyph unicode="A" glyph-name="A" horiz-adv-x="500" d="M-8 0L198 714H316L508 0H416L365 196H137L84 0H-8ZM254 613L155 268H347L256 613H254Z" />
<glyph unicode="B" glyph-name="B" horiz-adv-x="519" d="M146 340V72H266Q391 72 391 204Q391 274 350 309Q313 340 251 340H146ZM58 0V714H277Q356 714 403 675Q460 628 460 531Q460 481 432 439T356 382V380Q483 350 483 204Q483 0 252 0H58ZM146 642V406H247Q368
406 368 525Q368 642 245 642H146Z" />
<glyph unicode="C" glyph-name="C" horiz-adv-x="519" d="M403 245H495Q480 -14 278 -14Q141 -14 87 104Q48 189 48 357Q48 522 89 610Q144 728 278 728Q483 728 489 506H397Q393 656 278 656Q194 656 163 568Q140 503 140 357Q140 211 163 146Q194 58 278 58Q350
58 380 119Q400 161 403 245Z" />
<glyph unicode="D" glyph-name="D" horiz-adv-x="556" d="M155 642V72H247Q349 72 389 166Q416 231 416 356Q416 491 392 551Q354 642 247 642H155ZM67 0V714H258Q410 714 466 609Q508 532 508 357Q508 0 267 0H67Z" />
<glyph unicode="E" glyph-name="E" horiz-adv-x="463" d="M58 0V714H427V636H146V412H411V334H146V78H439V0H58Z" />
<glyph unicode="F" glyph-name="F" horiz-adv-x="444" d="M58 0V714H427V636H146V412H411V334H146V0H58Z" />
<glyph unicode="G" glyph-name="G" horiz-adv-x="537" d="M489 516H397Q390 656 278 656Q194 656 163 568Q140 503 140 357Q140 211 163 146Q194 58 278 58Q409 58 409 299H268V371H489V0H423V97H421Q406 49 366 19Q323 -14 267 -14Q140 -14 88 100Q48 186 48
357Q48 522 89 610Q144 728 278 728Q409 728 460 636Q487 587 489 516Z" />
<glyph unicode="H" glyph-name="H" horiz-adv-x="537" d="M479 714V0H391V344H146V0H58V714H146V422H391V714H479Z" />
<glyph unicode="I" glyph-name="I" horiz-adv-x="204" d="M58 0V714H146V0H58Z" />
<glyph unicode="J" glyph-name="J" horiz-adv-x="426" d="M368 714V205Q368 99 334 48Q292 -14 189 -14Q105 -14 61 35Q22 79 22 149V208H106V156Q106 58 188 58Q244 58 264 96Q280 127 280 208V714H368Z" />
<glyph unicode="K" glyph-name="K" horiz-adv-x="500" d="M58 0V714H146V368H148L395 714H493L277 416L511 0H413L220 344L146 243V0H58Z" />
<glyph unicode="L" glyph-name="L" horiz-adv-x="444" d="M58 0V714H146V78H436V0H58Z" />
<glyph unicode="M" glyph-name="M" horiz-adv-x="704" d="M60 0V714H208L351 148H353L496 714H644V0H556V624H554L396 0H308L150 624H148V0H60Z" />
<glyph unicode="N" glyph-name="N" horiz-adv-x="556" d="M58 0V714H172L408 118H410V714H498V0H377L148 578H146V0H58Z" />
<glyph unicode="O" glyph-name="O" horiz-adv-x="556" d="M278 728Q412 728 467 610Q508 522 508 357Q508 192 467 104Q412 -14 278 -14Q144 -14 89 104Q48 192 48 357Q48 522 89 610Q144 728 278 728ZM278 656Q194 656 163 568Q140 503 140 357Q140 211 163 146Q194
58 278 58Q362 58 393 146Q416 211 416 357Q416 503 393 568Q362 656 278 656Z" />
<glyph unicode="P" glyph-name="P" horiz-adv-x="481" d="M58 0V714H240Q326 714 374 688Q461 641 461 509Q461 411 405 357T255 302H146V0H58ZM146 642V374H251Q302 374 335 409T369 513Q369 642 245 642H146Z" />
<glyph unicode="Q" glyph-name="Q" horiz-adv-x="556" d="M473 -43L401 22Q352 -14 278 -14Q144 -14 89 104Q48 192 48 357Q48 522 89 610Q144 728 278 728Q412 728 467 610Q508 522 508 357Q508 164 450 75L522 9L473 -43ZM343 75L274 137L323 191L389 131Q416
197 416 357Q416 503 393 568Q362 656 278 656Q194 656 163 568Q140 503 140 357Q140 211 163 146Q194 58 278 58Q317 58 343 75Z" />
<glyph unicode="R" glyph-name="R" horiz-adv-x="519" d="M58 0V714H289Q374 714 423 667T472 535Q472 382 362 355V353Q407 348 434 315T463 234L469 112Q473 21 507 0H401Q382 19 377 103L371 214Q367 279 333 303Q311 318 265 318H146V0H58ZM146 642V390H233Q296
390 326 407Q380 438 380 528Q380 581 346 611T251 642H146Z" />
<glyph unicode="S" glyph-name="S" horiz-adv-x="500" d="M449 529H361Q361 656 250 656Q132 656 132 540Q132 458 219 420Q300 389 382 358Q469 308 469 198Q469 85 396 30Q337 -14 247 -14Q127 -14 76 48Q31 103 31 224H119Q119 145 138 111Q167 58 253 58Q306
58 341 93T377 184Q377 266 290 306Q209 337 127 369Q40 420 40 531Q40 604 77 654Q130 728 249 728Q446 728 449 529Z" />
<glyph unicode="T" glyph-name="T" horiz-adv-x="463" d="M275 636V0H187V636H8V714H455V636H275Z" />
<glyph unicode="U" glyph-name="U" horiz-adv-x="519" d="M50 212V714H138V212Q138 132 166 95T259 58Q327 58 355 98Q381 133 381 212V714H469V212Q469 107 417 48Q362 -14 259 -14Q50 -14 50 212Z" />
<glyph unicode="V" glyph-name="V" horiz-adv-x="462" d="M172 0L-2 714H90L230 101H232L372 714H464L284 0H172Z" />
<glyph unicode="W" glyph-name="W" horiz-adv-x="722" d="M150 0L8 714H96L205 130H207L308 714H414L515 130H517L626 714H714L567 0H460L362 578H360L257 0H150Z" />
<glyph unicode="X" glyph-name="X" horiz-adv-x="481" d="M192 363L16 714H114L244 447L375 714H467L289 363L479 0H381L239 286L94 0H2L192 363Z" />
<glyph unicode="Y" glyph-name="Y" horiz-adv-x="462" d="M187 280L-2 714H95L231 380L372 714H464L275 280V0H187V280Z" />
<glyph unicode="Z" glyph-name="Z" horiz-adv-x="463" d="M23 0V74L344 636H41V714H436V633L115 78H440V0H23Z" />
<glyph unicode="[" glyph-name="bracketleft" horiz-adv-x="259" d="M78 -184V714H257V648H156V-118H257V-184H78Z" />
<glyph unicode="\" glyph-name="backslash" horiz-adv-x="278" d="M222 -14L-10 728H56L288 -14H222Z" />
<glyph unicode="]" glyph-name="bracketright" horiz-adv-x="259" d="M181 714V-184H2V-118H103V648H2V714H181Z" />
<glyph unicode="^" glyph-name="asciicircum" horiz-adv-x="600" d="M47 261L276 694H324L553 261H487L300 622L113 261H47Z" />
<glyph unicode="_" glyph-name="underscore" horiz-adv-x="500" d="M0 -125V-75H500V-125H0Z" />
<glyph unicode="`" glyph-name="grave" horiz-adv-x="204" d="M-16 752H82L152 610H92L-16 752Z" />
<glyph unicode="a" glyph-name="a" horiz-adv-x="444" d="M126 374H42Q42 466 84 508T222 550Q328 550 365 494Q385 463 385 396V97Q385 54 411 54Q424 54 431 59V-1Q401 -6 382 -6Q348 -6 334 3Q309 17 306 63H304Q284 28 249 7T175 -14Q29 -14 29 142Q29 260
130 290L243 324Q285 337 296 355Q304 367 304 405Q304 484 218 484Q126 484 126 379V374ZM301 154V292Q283 273 232 257Q172 238 158 229Q117 204 117 144Q117 52 193 52Q235 52 268 82T301 154Z" />
<glyph unicode="b" glyph-name="b" horiz-adv-x="463" d="M134 268Q134 58 242 58Q340 58 340 268Q340 372 320 421Q297 478 242 478Q134 478 134 268ZM55 0V714H139V475H141Q155 509 189 529T265 550Q428 550 428 268Q428 145 387 70Q341 -14 253 -14Q211 -14
179 10T137 66H135V0H55Z" />
<glyph unicode="c" glyph-name="c" horiz-adv-x="426" d="M394 373H310Q310 418 292 448Q269 484 225 484Q177 484 153 447Q120 395 120 262Q120 175 133 131Q156 52 222 52Q310 52 310 186H394Q394 109 356 54Q309 -14 218 -14Q121 -14 76 55Q32 121 32 261Q32
550 223 550Q319 550 363 485Q394 439 394 373Z" />
<glyph unicode="d" glyph-name="d" horiz-adv-x="463" d="M123 268Q123 164 143 115Q166 58 221 58Q285 58 310 117Q329 164 329 268Q329 478 221 478Q166 478 143 421Q123 372 123 268ZM408 714V0H328V66H326Q317 34 286 11Q252 -14 210 -14Q35 -14 35 268Q35
550 204 550Q241 550 274 530T322 475H324V714H408Z" />
<glyph unicode="e" glyph-name="e" horiz-adv-x="444" d="M128 324H319V353Q319 484 226 484Q175 484 149 437Q128 398 128 344V324ZM407 258H125Q125 166 138 124Q160 52 228 52Q280 52 304 99Q319 131 319 176H403Q403 113 368 60Q319 -14 223 -14Q126 -14 81
55Q37 121 37 261Q37 550 228 550Q337 550 379 464Q407 406 407 292V258Z" />
<glyph unicode="f" glyph-name="f" horiz-adv-x="259" d="M80 0V470H2V536H80V599Q80 722 196 722H257V650H218Q164 650 164 599V536H256V470H164V0H80Z" />
<glyph unicode="g" glyph-name="g" horiz-adv-x="463" d="M221 478Q166 478 143 421Q123 372 123 268Q123 72 220 72Q283 72 309 129Q329 174 329 268Q329 478 221 478ZM408 536V34Q408 -184 226 -184Q64 -184 50 -50H134Q140 -118 220 -118Q290 -118 313 -72Q324
-49 324 2V72H322Q309 39 276 20T201 0Q100 0 60 107Q35 172 35 268Q35 550 210 550Q252 550 286 525Q317 501 326 468H328V536H408Z" />
<glyph unicode="h" glyph-name="h" horiz-adv-x="463" d="M55 0V714H139V475H141Q157 507 195 528T270 550Q360 550 391 489Q408 454 408 380V0H324V370Q324 478 245 478Q205 478 175 453Q139 423 139 370V0H55Z" />
<glyph unicode="i" glyph-name="i" horiz-adv-x="204" d="M60 0V536H144V0H60ZM60 618V714H144V618H60Z" />
<glyph unicode="j" glyph-name="j" horiz-adv-x="204" d="M144 536V-52Q144 -184 16 -184Q16 -184 -23 -181V-109Q7 -112 8 -112Q43 -112 54 -86Q60 -70 60 -22V536H144ZM144 714V618H60V714H144Z" />
<glyph unicode="k" glyph-name="k" horiz-adv-x="444" d="M264 334L455 0H357L208 265L139 181V0H55V714H139V289H141L329 536H427L264 334Z" />
<glyph unicode="l" glyph-name="l" horiz-adv-x="204" d="M60 0V714H144V0H60Z" />
<glyph unicode="m" glyph-name="m" horiz-adv-x="722" d="M63 0V536H143V473H145Q161 509 199 530Q234 550 275 550Q367 550 391 465Q410 502 444 526T518 550Q610 550 641 489Q659 454 659 380V0H575V370Q575 478 503 478Q466 478 438 456Q403 426 403 370V0H319V370Q319
478 247 478Q210 478 182 456Q147 426 147 370V0H63Z" />
<glyph unicode="n" glyph-name="n" horiz-adv-x="463" d="M55 0V536H135V473H137Q153 509 191 530Q226 550 267 550Q359 550 390 489Q408 454 408 380V0H324V370Q324 478 245 478Q205 478 175 453Q139 423 139 370V0H55Z" />
<glyph unicode="o" glyph-name="o" horiz-adv-x="444" d="M29 268Q29 550 222 550Q415 550 415 268Q415 -14 222 -14Q29 -14 29 268ZM220 52Q327 52 327 268Q327 369 307 420Q282 484 220 484Q117 484 117 268Q117 52 220 52Z" />
<glyph unicode="p" glyph-name="p" horiz-adv-x="463" d="M134 268Q134 58 242 58Q297 58 320 116Q340 167 340 278Q340 478 242 478Q178 478 153 419Q134 372 134 268ZM55 -176V536H135V470H137Q146 502 178 526T253 550Q428 550 428 278Q428 164 393 86Q347
-14 253 -14Q217 -14 186 6T141 61H139V-176H55Z" />
<glyph unicode="q" glyph-name="q" horiz-adv-x="463" d="M329 268Q329 372 310 419Q285 478 221 478Q123 478 123 278Q123 167 143 116Q166 58 221 58Q329 58 329 268ZM324 -176V61H322Q308 27 277 7T210 -14Q35 -14 35 278Q35 550 210 550Q252 550 286 525Q317
502 326 470H328V536H408V-176H324Z" />
<glyph unicode="r" glyph-name="r" horiz-adv-x="296" d="M55 0V536H139V456H141Q185 550 257 550Q282 550 294 544V462Q262 466 249 466Q211 466 178 436Q139 399 139 339V0H55Z" />
<glyph unicode="s" glyph-name="s" horiz-adv-x="407" d="M369 379H285Q285 433 268 458T206 484Q119 484 119 402Q119 361 160 338Q173 331 251 305Q316 283 341 261Q382 225 382 154Q382 72 335 29T209 -14Q25 -14 25 176H109Q109 52 209 52Q240 52 264 68Q298
91 298 141Q298 188 257 214Q239 226 167 250Q100 273 77 293Q35 328 35 402Q35 474 86 514Q132 550 206 550Q308 550 346 488Q368 451 369 379Z" />
<glyph unicode="t" glyph-name="t" horiz-adv-x="259" d="M80 536V692H164V536H257V470H164V126Q164 93 175 80T219 66Q229 66 256 69V0Q223 -6 188 -6Q126 -6 101 21Q80 44 80 100V470H2V536H80Z" />
<glyph unicode="u" glyph-name="u" horiz-adv-x="463" d="M408 536V0H328V63H326Q310 27 274 7T196 -14Q104 -14 73 47Q55 82 55 156V536H139V166Q139 58 218 58Q258 58 288 83Q324 113 324 166V536H408Z" />
<glyph unicode="v" glyph-name="v" horiz-adv-x="406" d="M155 0L10 536H102L202 106H204L304 536H396L251 0H155Z" />
<glyph unicode="w" glyph-name="w" horiz-adv-x="648" d="M135 0L10 536H98L184 98H186L277 536H376L465 98H467L550 536H638L511 0H419L325 438H323L233 0H135Z" />
<glyph unicode="x" glyph-name="x" horiz-adv-x="406" d="M153 279L16 536H108L205 345L303 536H395L255 279L400 0H308L201 212L98 0H6L153 279Z" />
<glyph unicode="y" glyph-name="y" horiz-adv-x="406" d="M168 -11L10 536H102L208 106H210L304 536H396L241 -36Q222 -106 200 -134Q166 -176 98 -176Q79 -176 37 -173V-107Q55 -110 86 -110Q134 -110 152 -58L168 -11Z" />
<glyph unicode="z" glyph-name="z" horiz-adv-x="389" d="M39 464V536H362V466L122 72H360V0H27V66L270 464H39Z" />
<glyph unicode="{" glyph-name="braceleft" horiz-adv-x="259" d="M2 235V295Q36 295 57 325T78 406V584Q78 714 186 714H257V648H206Q174 648 163 621Q156 604 156 566V394Q156 331 120 295Q96 270 68 266V264Q96 260 120 235Q156 199 156 136V-36Q156 -74 163
-91Q174 -118 206 -118H257V-184H186Q78 -184 78 -54V124Q78 175 57 205T2 235Z" />
<glyph unicode="|" glyph-name="bar" horiz-adv-x="222" d="M78 -14V728H144V-14H78Z" />
<glyph unicode="}" glyph-name="braceright" horiz-adv-x="259" d="M257 295V235Q223 235 202 205T181 124V-54Q181 -184 73 -184H2V-118H53Q85 -118 96 -91Q103 -74 103 -36V136Q103 199 139 235Q163 260 191 264V266Q163 270 139 295Q103 331 103 394V566Q103
604 96 621Q85 648 53 648H2V714H73Q181 714 181 584V406Q181 355 202 325T257 295Z" />
<glyph unicode="~" glyph-name="asciitilde" horiz-adv-x="600" d="M98 185V185L56 231Q122 324 192 324Q243 324 296 295Q322 280 348 265Q380 248 403 248Q453 248 502 321L544 276Q478 182 408 182Q357 182 304 211Q278 226 252 241Q220 258 197 258Q147 258 98 185Z" />
<glyph unicode="&#x80;" glyph-name="uni20AC" horiz-adv-x="480" d="M465 661Q428 685 393 698T312 711Q252 711 211 690T143 634T102 551T83 451H39L18 391H80L79 336H40L19 276H80Q83 220 93 168T128 75T195 10T304 -14Q347 -14 383 -4T455 29V116Q423 90 389
72T311 54Q266 54 239 75T198 130T178 202T172 276H345L366 336H171L172 391H382L403 451H176Q179 485 185 519T207 580T248 625T316 642Q352 642 379 628T433 590L465 661Z" />
</font>
</defs>
</svg>
