<?xml version="1.0" standalone="no"?>
<!DOCTYPE svg PUBLIC "-//W3C//DTD SVG 1.1//EN" "http://www.w3.org/Graphics/SVG/1.1/DTD/svg11.dtd" >
<svg xmlns="http://www.w3.org/2000/svg">
<metadata></metadata>
<defs>
<font id="helvetica_neue_lt_com77BdCn" horiz-adv-x="983" >
<font-face units-per-em="2048" ascent="1462" descent="-586" />
<missing-glyph horiz-adv-x="491" />
<glyph unicode="&#xfb01;" horiz-adv-x="1099" d="M12 909v193h144v125q0 74 20.5 125t58 81.5t93 44t123.5 13.5q74 0 151 -6v-201q-10 2 -29 2h-26q-59 0 -84 -20.5t-25 -67.5v-96h164v-193h-164v-909h-282v909h-144zM714 0v1102h283v-1102h-283zM714 1237v242h283v-242h-283z" />
<glyph unicode="&#xfb02;" horiz-adv-x="1099" d="M12 909v193h144v125q0 74 20.5 125t58 81.5t93 44t123.5 13.5q74 0 151 -6v-201q-10 2 -29 2h-26q-59 0 -84 -20.5t-25 -67.5v-96h164v-193h-164v-909h-282v909h-144zM714 0v1462h283v-1462h-283z" />
<glyph horiz-adv-x="2048" />
<glyph horiz-adv-x="2048" />
<glyph unicode="&#xd;" horiz-adv-x="0" />
<glyph unicode=" "  horiz-adv-x="491" />
<glyph unicode="&#x09;" horiz-adv-x="491" />
<glyph unicode="&#xa0;" horiz-adv-x="491" />
<glyph unicode="!" horiz-adv-x="606" d="M162 0v270h282v-270h-282zM162 987v475h282v-475l-38 -579h-205z" />
<glyph unicode="&#x22;" horiz-adv-x="948" d="M147 805v657h254v-657h-254zM547 805v657h254v-657h-254z" />
<glyph unicode="#" d="M0 356v230h178l33 250h-150v229h177l45 356h196l-43 -356h199l45 356h199l-45 -356h149v-229h-176l-33 -250h150v-230h-176l-46 -356h-198l45 356h-201l-43 -356h-199l46 356h-152zM377 586h198l33 250h-200z" />
<glyph unicode="$" d="M18 391v43h283q0 -43 3 -83t15.5 -72.5t36 -56t64.5 -34.5v414l-103 37q-150 53 -215 152.5t-65 240.5q0 190 99.5 294t283.5 124v141h131v-141q113 -10 186.5 -46t116.5 -89t59.5 -119t16.5 -133v-29h-283q-2 78 -22.5 130.5t-73.5 68.5v-387l162 -66q57 -25 103 -53.5 t79 -70.5t51.5 -101t18.5 -145q0 -221 -105.5 -322.5t-308.5 -116.5v-178h-131v178q-127 10 -206 47t-122 93.5t-58.5 128t-15.5 151.5zM319 1077q0 -115 101 -172v328q-100 -29 -101 -156zM551 188q63 14 91 60.5t28 103.5q0 78 -30 123t-89 76v-363z" />
<glyph unicode="%" horiz-adv-x="1593" d="M55 1059q0 98 12.5 172t46 123t93 72.5t155.5 23.5q94 0 155 -23.5t94.5 -72.5t46 -123t12.5 -172t-12.5 -172t-46 -123t-94 -72.5t-155.5 -23.5q-96 0 -155.5 23.5t-93 72.5t-46 123t-12.5 172zM272 1067q0 -123 14.5 -183.5t75.5 -60.5t76 60.5t15 183.5 q0 111 -14.5 169t-76.5 58q-61 0 -75.5 -58t-14.5 -169zM287 -63l831 1548h182l-831 -1548h-182zM924 362q0 98 12 172t46 123.5t93.5 73t155.5 23.5q94 0 154.5 -23.5t94 -73t46 -123t12.5 -172.5q0 -98 -12.5 -171.5t-46 -123t-94 -73t-154.5 -23.5q-96 0 -155.5 23.5 t-93.5 73t-46 123t-12 171.5zM1141 371q0 -123 14 -183.5t76 -60.5q61 0 75.5 60.5t14.5 183.5q0 111 -14.5 169t-75.5 58t-75.5 -58t-14.5 -169z" />
<glyph unicode="&#x26;" horiz-adv-x="1214" d="M25 393q0 129 78.5 232.5t215.5 189.5l-51 76q-31 45 -50 80t-29.5 65.5t-14.5 59t-4 59.5q0 70 27.5 127t77 97t118 61.5t150.5 21.5q94 0 162.5 -23.5t113.5 -65.5t66.5 -97t21.5 -119q0 -111 -62.5 -199t-191.5 -180l219 -297q23 47 37.5 110.5t14.5 110.5h254 q0 -119 -42 -228t-108 -204l193 -270h-314l-82 113q-55 -66 -148 -104t-204 -38q-139 0 -226 43t-136.5 106.5t-67.5 137.5t-18 135zM307 393q0 -35 13.5 -68.5t39 -61t64.5 -45t88 -17.5q117 0 190 92l-245 348q-86 -66 -118 -123t-32 -125zM412 1163q0 -61 73 -159l35 -50 l53 45q49 41 71 81t22 79q0 59 -36 91t-93 32q-53 0 -89 -31t-36 -88z" />
<glyph unicode="'" horiz-adv-x="532" d="M139 805v657h254v-657h-254z" />
<glyph unicode="(" horiz-adv-x="606" d="M102 543q0 217 67 447.5t220 471.5h217q-63 -117 -108 -226.5t-73 -220t-40 -226t-12 -246.5t12 -247t40 -226.5t73 -220t108 -226.5h-217q-154 242 -220.5 472.5t-66.5 447.5z" />
<glyph unicode=")" horiz-adv-x="606" d="M0 -377q63 117 108.5 226.5t73 220t39.5 226.5t12 247t-12 246.5t-39.5 226t-73 220.5t-108.5 226h217q154 -242 220.5 -472t66.5 -447t-66.5 -447.5t-220.5 -472.5h-217z" />
<glyph unicode="*" horiz-adv-x="798" d="M14 1122l52 160l249 -82v262h168v-262l250 82l51 -160l-249 -82l155 -213l-137 -98l-154 213l-153 -213l-137 98l155 213z" />
<glyph unicode="+" horiz-adv-x="1228" d="M96 391v254h391v391h254v-391h392v-254h-392v-391h-254v391h-391z" />
<glyph unicode="," horiz-adv-x="491" d="M111 0v319h270v-266q0 -82 -11.5 -150.5t-42 -118.5t-82.5 -82t-134 -40v143q53 10 79.5 57.5t26.5 104.5v33h-106z" />
<glyph unicode="-" horiz-adv-x="757" d="M90 471v242h578v-242h-578z" />
<glyph unicode="." horiz-adv-x="491" d="M111 0v319h270v-319h-270z" />
<glyph unicode="/" horiz-adv-x="679" d="M-6 -29l463 1520h229l-463 -1520h-229z" />
<glyph unicode="0" d="M37 676q0 150 10 290t55 247.5t136.5 172t253.5 64.5q131 0 219 -38t140 -122t73.5 -218t21.5 -327q0 -152 -10 -291t-55 -246.5t-136.5 -172t-252.5 -64.5q-133 0 -220.5 38t-139.5 122t-73.5 218t-21.5 327zM332 612q0 -137 7 -224t25.5 -137t49 -68.5t78.5 -18.5 q49 0 79.5 23.5t48 80t24.5 150.5t7 233v158q0 137 -7 224t-25.5 137.5t-49 68.5t-77.5 18q-49 0 -80 -23.5t-48.5 -79.5t-24.5 -150.5t-7 -233.5v-158z" />
<glyph unicode="1" d="M84 1024v193h27q147 0 232 55t108 178h217v-1450h-295v1024h-289z" />
<glyph unicode="2" d="M37 0q0 96 19.5 180t59.5 160t100 148.5t140 146.5l119 110q49 43 79 80t46 74t21.5 80t5.5 98q0 180 -144 180q-55 0 -86.5 -22.5t-49 -61t-23 -90t-5.5 -108.5h-282v55q0 203 108.5 311.5t341.5 108.5q221 0 328 -102.5t107 -292.5q0 -72 -12.5 -131.5t-39 -114.5 t-69.5 -107.5t-105 -107.5l-164 -152q-66 -59 -102.5 -115.5t-46.5 -97.5h547v-229h-893z" />
<glyph unicode="3" d="M41 418v6h283q2 -127 33.5 -193.5t127.5 -66.5q53 0 85 18.5t49.5 50t22.5 74.5t5 90q0 49 -7 93.5t-27.5 79t-57.5 55t-98 20.5h-99v193h97q45 0 77.5 19.5t52 51t29 72.5t9.5 86q0 104 -35 147t-107 43q-47 0 -76.5 -17t-46 -49t-21.5 -75t-5 -94h-271q0 217 109 322.5 t317 105.5q199 0 308.5 -90t109.5 -283q0 -131 -58.5 -214t-162.5 -105v-4q141 -23 199.5 -114t58.5 -228q0 -74 -18.5 -152t-71.5 -142.5t-147.5 -105.5t-243.5 -41q-211 0 -315.5 118t-104.5 329z" />
<glyph unicode="4" d="M29 301v242l481 907h305v-920h139v-229h-139v-301h-270v301h-516zM258 530h287v551h-4z" />
<glyph unicode="5" d="M37 375v39h282q0 -37 4.5 -78t19.5 -77t44 -59.5t76 -23.5q92 0 132 70.5t40 212.5q0 90 -8.5 149.5t-27.5 94t-52 49t-82 14.5q-63 0 -97 -36t-42 -97h-265l54 788h755v-229h-534l-31 -330h4q41 57 106.5 83t159.5 26q104 0 173 -40t109 -105.5t56.5 -148.5t16.5 -169 q0 -121 -20.5 -219.5t-73 -169t-142.5 -109.5t-229 -39t-223 40t-129 100.5t-60.5 131t-15.5 132.5z" />
<glyph unicode="6" d="M29 649q0 154 9 298.5t55 256t144.5 179t278.5 67.5q78 0 150.5 -18.5t128 -61.5t89.5 -113.5t36 -175.5h-283q0 86 -29.5 131t-103.5 45q-59 0 -94 -27.5t-54.5 -76.5t-25.5 -116.5t-6 -147.5v-72h4q37 57 105.5 91t166.5 34q96 0 163.5 -34t109.5 -94t61.5 -143 t19.5 -182q0 -252 -111.5 -385t-357.5 -133q-152 0 -242.5 56.5t-138 149.5t-61.5 216t-14 256zM338 451q0 -61 6 -114.5t23.5 -91.5t49.5 -59.5t83 -21.5q53 0 84.5 21.5t48 60.5t21.5 91t5 114q0 147 -36.5 210.5t-122.5 63.5q-88 0 -125 -63.5t-37 -210.5z" />
<glyph unicode="7" d="M45 1167v254h893v-225q-90 -127 -160.5 -272.5t-124 -299t-88.5 -312t-53 -312.5h-309q16 131 49 275.5t87 294t132 301t184 296.5h-610z" />
<glyph unicode="8" d="M29 410q0 137 61.5 235t183.5 123v4q-59 14 -99 45t-64.5 70t-34.5 82t-10 82q0 213 113.5 306t312.5 93t312.5 -93t113.5 -306q0 -39 -11.5 -82t-36 -82t-64.5 -70t-97 -45v-4q123 -25 184 -123t61 -235q0 -61 -15 -138t-64.5 -144t-140.5 -112t-242 -45q-152 0 -243 45 t-140.5 112t-64.5 144t-15 138zM324 414q0 -53 7 -98.5t26.5 -79t52 -53t82.5 -19.5q49 0 81.5 19.5t52 53t26.5 78.5t7 99q0 51 -7 97t-26.5 80t-52 53.5t-81.5 19.5t-82 -19.5t-52.5 -53.5t-26.5 -80t-7 -97zM348 1059q0 -104 39 -153.5t105 -49.5t104.5 49t38.5 154 q0 199 -143 198q-144 1 -144 -198z" />
<glyph unicode="9" d="M29 932q0 252 111.5 385t357.5 133q152 0 241.5 -56.5t138 -149.5t62.5 -216t14 -256q0 -154 -9 -298t-55 -256t-145.5 -179.5t-277.5 -67.5q-78 0 -150.5 18.5t-128 60.5t-89 112.5t-36.5 175.5h283q0 -82 30 -128t103 -46q57 0 93 27.5t55.5 76.5t25.5 117t6 147v70h-4 q-37 -55 -105.5 -89t-166.5 -34q-96 0 -163.5 34t-109.5 94.5t-61.5 143.5t-19.5 181zM324 971q0 -147 36.5 -211t122.5 -64q88 0 125 63.5t37 211.5q0 61 -6 114.5t-23.5 91t-49 59t-83.5 21.5q-53 0 -84.5 -21.5t-48 -60t-21.5 -91t-5 -113.5z" />
<glyph unicode=":" horiz-adv-x="491" d="M111 0v319h270v-319h-270zM111 748v319h270v-319h-270z" />
<glyph unicode=";" horiz-adv-x="491" d="M111 0v319h270v-266q0 -82 -11.5 -150.5t-42 -118.5t-82.5 -82t-134 -40v143q53 10 79.5 57.5t26.5 104.5v33h-106zM111 748v319h270v-319h-270z" />
<glyph unicode="&#x3c;" horiz-adv-x="1228" d="M96 410v217l1037 426v-254l-693 -281l693 -280v-254z" />
<glyph unicode="=" horiz-adv-x="1228" d="M96 168v254h1037v-254h-1037zM96 614v254h1037v-254h-1037z" />
<glyph unicode="&#x3e;" horiz-adv-x="1228" d="M96 -16v254l692 280l-692 281v254l1037 -426v-217z" />
<glyph unicode="?" horiz-adv-x="985" d="M74 1010v47q0 92 25.5 170t75.5 133t126 87t178 32q217 0 324.5 -107.5t107.5 -288.5q0 -86 -27.5 -159.5t-101.5 -159.5l-82 -92q-53 -59 -76.5 -108.5t-23.5 -127.5v-30h-254v79q0 102 28.5 173t98.5 149l78 88q43 47 60.5 101.5t17.5 115.5q0 78 -35 126t-105 48 q-78 0 -111.5 -62.5t-33.5 -162.5v-51h-270zM332 0v270h282v-270h-282z" />
<glyph unicode="@" horiz-adv-x="1638" d="M59 731q0 158 59.5 296t163 241.5t242 163t295.5 59.5q154 0 292 -44t241.5 -126t165 -195.5t61.5 -255.5q0 -109 -28.5 -193.5t-74.5 -150t-103.5 -111.5t-115 -75t-108.5 -42t-84 -13q-123 0 -133 108h-4q-41 -43 -102.5 -75.5t-143.5 -32.5q-55 0 -108.5 23.5 t-95.5 68.5t-68.5 109.5t-26.5 146.5q0 94 30.5 184t88 161t138.5 115t181 44q78 0 140.5 -33t107.5 -105l27 109h180l-119 -512q-12 -59 -12 -84q0 -41 41 -41q31 0 67.5 25.5t68.5 71.5t54.5 113t22.5 146q0 102 -45 188.5t-121 150t-174 98t-205 34.5q-121 0 -224.5 -47 t-179 -127t-118.5 -182t-43 -213q0 -117 47 -220t126 -180t184.5 -121t221.5 -44q141 0 250 40t195 91h182q-111 -154 -276.5 -239t-399.5 -85q-158 0 -296 59.5t-241.5 163t-163 241.5t-59.5 296zM612 668q0 -68 40 -117t106 -49q51 0 95 23.5t76 61.5t49 84t17 93 q0 66 -45 111t-108 45q-49 0 -91 -24t-73 -60.5t-48.5 -80.5t-17.5 -87z" />
<glyph unicode="A" horiz-adv-x="1138" d="M0 0l387 1462h365l387 -1462h-308l-67 309h-389l-68 -309h-307zM426 551h287l-142 657h-4z" />
<glyph unicode="B" horiz-adv-x="1138" d="M102 0v1462h494q90 0 167 -18.5t132 -61.5t86 -114.5t31 -175.5q0 -119 -55.5 -204t-165.5 -116v-4q123 -16 194.5 -104.5t71.5 -235.5q0 -86 -22.5 -164t-77 -136t-141.5 -93t-216 -35h-498zM397 217h115q106 0 172 47t66 174q0 63 -17.5 105.5t-47.5 68t-71 35.5 t-90 10h-127v-440zM397 862h84q123 0 179.5 44t56.5 149q0 104 -51.5 147t-161.5 43h-107v-383z" />
<glyph unicode="C" horiz-adv-x="1099" d="M72 731q0 166 15 306.5t67.5 240.5t150.5 156.5t264 56.5q158 0 249 -51t136 -130t56.5 -170t11.5 -171h-295q0 160 -38 232.5t-138 72.5q-55 0 -91 -30t-56.5 -96.5t-28.5 -174t-8 -262.5q0 -166 11 -268.5t34.5 -159t59.5 -76t83 -19.5q39 0 73 13.5t58.5 53.5 t38.5 112.5t14 191.5h295q0 -119 -18.5 -225.5t-68.5 -187t-141 -128t-237 -47.5q-166 0 -264 56.5t-150.5 157t-67.5 240.5t-15 306z" />
<glyph unicode="D" horiz-adv-x="1175" d="M117 0v1462h483q154 0 248 -50t146.5 -143t70.5 -224.5t18 -292.5q0 -195 -23.5 -336.5t-80.5 -233.5t-153.5 -137t-243.5 -45h-465zM412 217h131q76 0 124 26.5t75.5 88t36.5 162t9 249.5q0 125 -8 218.5t-33.5 157t-75.5 95t-134 31.5h-125v-1028z" />
<glyph unicode="E" horiz-adv-x="985" d="M102 0v1462h818v-241h-523v-344h492v-242h-492v-393h543v-242h-838z" />
<glyph unicode="F" horiz-adv-x="948" d="M102 0v1462h818v-241h-523v-344h492v-242h-492v-635h-295z" />
<glyph unicode="G" horiz-adv-x="1138" d="M88 748q0 184 23.5 323t81 232.5t151.5 140.5t236 47q242 0 348 -120t106 -343h-282q0 39 -9.5 83t-30 80t-52 59.5t-76.5 23.5q-106 0 -153.5 -119t-47.5 -393q0 -133 8 -238.5t29.5 -180.5t61.5 -115t104 -40q27 0 58.5 14.5t59 43t46 72.5t18.5 104v149h-195v217h478 v-788h-217v135h-5q-53 -86 -127.5 -125t-179.5 -39q-135 0 -220 50.5t-133 148.5t-64.5 242.5t-16.5 335.5z" />
<glyph unicode="H" horiz-adv-x="1138" d="M102 0v1462h295v-559h344v559h295v-1462h-295v649h-344v-649h-295z" />
<glyph unicode="I" horiz-adv-x="528" d="M117 0v1462h295v-1462h-295z" />
<glyph unicode="J" horiz-adv-x="948" d="M31 399v64h270v-45q0 -117 25.5 -173.5t105.5 -56.5t105.5 56.5t25.5 173.5v1044h295v-1052q0 -233 -108.5 -336t-331.5 -103q-117 0 -191.5 35t-119 93.5t-60.5 136t-16 163.5z" />
<glyph unicode="K" horiz-adv-x="1099" d="M102 0v1462h295v-585h4l373 585h320l-398 -626l443 -836h-332l-301 600l-109 -166v-434h-295z" />
<glyph unicode="L" horiz-adv-x="948" d="M102 0v1462h295v-1220h523v-242h-818z" />
<glyph unicode="M" horiz-adv-x="1515" d="M109 0v1462h438l209 -1032h4l211 1032h436v-1462h-270v1167h-4l-261 -1167h-229l-260 1167h-4v-1167h-270z" />
<glyph unicode="N" horiz-adv-x="1175" d="M102 0v1462h340l357 -1001h4v1001h270v-1462h-336l-360 1024h-4v-1024h-271z" />
<glyph unicode="O" horiz-adv-x="1138" d="M72 731q0 166 15 306.5t67.5 240.5t150.5 156.5t264 56.5t264.5 -56.5t150.5 -156.5t67.5 -240.5t15.5 -306.5t-15.5 -306t-67.5 -240.5t-150.5 -157t-264.5 -56.5t-264 56.5t-150.5 157t-67.5 240.5t-15 306zM367 731q0 -147 7 -250.5t28.5 -168t61.5 -94.5t105 -30 q66 0 106 30t61.5 94.5t28.5 168t7 250.5t-7 249.5t-28.5 168t-61.5 95.5t-106 30t-105.5 -30t-61 -95.5t-28.5 -168t-7 -249.5z" />
<glyph unicode="P" horiz-adv-x="1062" d="M102 0v1462h516q113 0 190 -38t124 -99t67.5 -140t20.5 -161q0 -115 -34 -198t-94.5 -136t-146.5 -79.5t-190 -26.5h-158v-584h-295zM397 801h131q88 0 142.5 53t54.5 166q0 111 -47 168t-158 57h-123v-444z" />
<glyph unicode="Q" horiz-adv-x="1138" d="M72 731q0 166 15 306.5t67.5 240.5t150.5 156.5t264 56.5t264.5 -56.5t150.5 -156.5t67.5 -240.5t15.5 -306.5q0 -186 -20.5 -337.5t-92.5 -256.5l158 -160l-174 -157l-174 180q-47 -16 -90 -23q-47 -6 -105 -6q-166 0 -264 56.5t-150.5 157t-67.5 240.5t-15 306z M367 731q0 -147 7 -250.5t28.5 -168t61.5 -94.5t105 -30q66 0 106 30t61.5 94.5t28.5 168t7 250.5t-7 249.5t-28.5 168t-61.5 95.5t-106 30t-105.5 -30t-61 -95.5t-28.5 -168t-7 -249.5z" />
<glyph unicode="R" horiz-adv-x="1138" d="M102 0v1462h545q184 0 286.5 -93t102.5 -284q0 -147 -59 -240t-184 -120v-4q76 -10 120.5 -38t69.5 -80t34 -132t11 -197t13.5 -178t52.5 -84v-12h-320q-23 31 -29 71t-8 83l-8 280q-4 86 -43 135t-131 49h-158v-618h-295zM397 823h123q106 0 163.5 50.5t57.5 168.5 q0 203 -204 203h-140v-422z" />
<glyph unicode="S" horiz-adv-x="1062" d="M45 397v60h295v-43q0 -51 8 -93t30.5 -71t59.5 -45.5t97 -16.5q68 0 122 44t54 137q0 49 -13.5 84.5t-44 64.5t-81 52.5t-123.5 47.5q-98 33 -170 72t-120 91.5t-70.5 121t-22.5 158.5q0 217 120.5 323.5t331.5 106.5q98 0 181 -21.5t143.5 -69.5t94.5 -123t34 -179v-41 h-283q0 104 -37 160.5t-123 56.5q-49 0 -81.5 -14.5t-52 -38t-27 -54t-7.5 -63.5q0 -68 29 -114t123 -85l227 -98q82 -37 136.5 -77t86 -86t44 -101.5t12.5 -122.5q0 -231 -134 -340t-374 -109q-250 0 -357.5 112t-107.5 314z" />
<glyph unicode="T" d="M25 1221v241h933v-241h-319v-1221h-295v1221h-319z" />
<glyph unicode="U" horiz-adv-x="1101" d="M84 442v1020h295v-1020q0 -55 7 -101t26.5 -80t52.5 -53.5t86 -19.5q51 0 85 19.5t53.5 53.5t26.5 80t7 101v1020h295v-1020q0 -139 -39 -230t-104.5 -144.5t-149.5 -75t-174 -21.5t-174 18.5t-149.5 71t-104.5 143.5t-39 238z" />
<glyph unicode="V" horiz-adv-x="1062" d="M6 1462h316l206 -1081h7l217 1081h305l-336 -1462h-379z" />
<glyph unicode="W" horiz-adv-x="1556" d="M16 1462h283l162 -1081h4l172 1081h283l172 -1081h4l161 1081h283l-266 -1462h-330l-164 1061h-4l-164 -1061h-329z" />
<glyph unicode="X" horiz-adv-x="1099" d="M12 0l365 739l-336 723h326l188 -473l186 473h322l-340 -723l364 -739h-331l-211 496l-209 -496h-324z" />
<glyph unicode="Y" horiz-adv-x="1064" d="M6 1462h332l192 -565h5l204 565h320l-379 -887v-575h-295v575z" />
<glyph unicode="Z" horiz-adv-x="985" d="M49 0v215l539 1006h-502v241h842v-223l-547 -997h555v-242h-887z" />
<glyph unicode="[" horiz-adv-x="645" d="M164 -377v1839h469v-205h-215v-1429h215v-205h-469z" />
<glyph unicode="\" horiz-adv-x="679" d="M-6 1491h229l463 -1520h-229z" />
<glyph unicode="]" horiz-adv-x="645" d="M12 -172h215v1429h-215v205h469v-1839h-469v205z" />
<glyph unicode="^" horiz-adv-x="1228" d="M115 633l385 788h229l385 -788h-254l-246 506l-245 -506h-254z" />
<glyph unicode="_" horiz-adv-x="1024" d="M0 -154h1024v-102h-1024v102z" />
<glyph unicode="`" horiz-adv-x="454" d="M-33 1528h283l110 -295h-192z" />
<glyph unicode="a" horiz-adv-x="985" d="M57 287q0 78 16.5 134t50.5 96t86 66.5t126 47.5l160 43q63 16 87.5 45t24.5 84q0 63 -29.5 99t-101.5 36q-66 0 -98.5 -39t-32.5 -104v-31h-254v27q0 94 31 159.5t83 105.5t122.5 57t150.5 17q125 0 204 -24.5t122 -69.5t58.5 -107.5t15.5 -135.5v-580q0 -78 7 -121 t27 -92h-270q-14 27 -21.5 56.5t-13.5 58.5h-4q-49 -86 -113.5 -115t-166.5 -29q-74 0 -125.5 29t-82 74t-45 101t-14.5 112zM328 317q0 -63 24.5 -108t81.5 -45q29 0 59.5 9t56 29.5t42 52.5t16.5 79v217q-29 -23 -61.5 -36t-59.5 -19q-86 -18 -122.5 -61.5t-36.5 -117.5z " />
<glyph unicode="b" horiz-adv-x="1024" d="M94 0v1462h283v-463h4q45 66 101.5 98.5t135.5 32.5q174 0 256 -136t82 -443t-81.5 -443.5t-256.5 -136.5q-86 0 -144 34t-105 112h-4v-117h-271zM377 551q0 -180 27.5 -271.5t121.5 -91.5q92 0 120 91.5t28 271.5t-28 271t-120 91q-94 0 -121.5 -91t-27.5 -271z" />
<glyph unicode="c" horiz-adv-x="948" d="M53 551q0 170 33 281.5t92.5 178t141 93t180.5 26.5q197 0 296 -114.5t99 -310.5h-270q0 39 -5.5 78.5t-18.5 71.5t-38.5 51.5t-64.5 19.5q-53 0 -85 -23.5t-48.5 -70t-22.5 -118t-6 -165.5q0 -102 6 -175t22.5 -120t46 -68.5t76.5 -21.5q72 0 105 61.5t33 196.5h270 q0 -217 -97.5 -334t-322.5 -117q-106 0 -185 29t-131.5 95.5t-79 178t-26.5 277.5z" />
<glyph unicode="d" horiz-adv-x="1024" d="M68 551q0 307 81.5 443t256.5 136q80 0 136 -32.5t101 -98.5h4v463h283v-1462h-271v117h-4q-47 -78 -105 -112t-144 -34q-174 0 -256 136.5t-82 443.5zM350 551q0 -180 28 -271.5t120 -91.5q94 0 121.5 91.5t27.5 271.5t-27.5 271t-121.5 91q-92 0 -120 -91t-28 -271z " />
<glyph unicode="e" horiz-adv-x="948" d="M53 561q0 111 15.5 213.5t61.5 182t132 126.5t230 47q123 0 201.5 -39.5t123.5 -112.5t61.5 -176.5t16.5 -230.5v-63h-559v-88q0 -49 7 -95t23.5 -82t43 -57.5t65.5 -21.5q72 0 104.5 51t45.5 156h254q-8 -193 -102.5 -296.5t-297.5 -103.5q-154 0 -239.5 53.5 t-126.5 138.5t-50.5 190.5t-9.5 207.5zM336 676h289q-2 63 -8.5 111.5t-21.5 82t-43 51t-71 17.5t-70.5 -19.5t-44 -51t-23.5 -70.5t-7 -78v-43z" />
<glyph unicode="f" horiz-adv-x="606" d="M12 909v193h144v125q0 74 20.5 125t58 81.5t93 44t123.5 13.5q74 0 151 -6v-201q-10 2 -29 2h-26q-59 0 -84 -20.5t-25 -67.5v-96h164v-193h-164v-909h-282v909h-144z" />
<glyph unicode="g" horiz-adv-x="1024" d="M72 569q0 96 11 196.5t47 181.5t104.5 132t183.5 51q59 0 122.5 -32.5t104.5 -118.5h4v123h271v-1047q0 -221 -105.5 -326.5t-353.5 -105.5q-180 0 -277.5 77t-97.5 218h270q0 -53 43 -84q20 -14 44 -22.5t51 -8.5q86 0 120.5 56.5t34.5 142.5v145h-4q-43 -61 -105.5 -98 t-129.5 -37q-168 0 -253 128t-85 429zM354 516q0 -57 5.5 -108.5t20.5 -91.5t43 -63.5t73 -23.5t74.5 23.5t47 64.5t24.5 99.5t7 128.5q0 201 -31.5 284.5t-115.5 83.5q-47 0 -76 -20.5t-45 -66.5t-21.5 -122.5t-5.5 -187.5z" />
<glyph unicode="h" horiz-adv-x="1024" d="M94 0v1462h283v-473h4q82 141 268 141q135 0 208 -73.5t73 -239.5v-817h-283v760q0 86 -28.5 119.5t-92.5 33.5q-150 0 -149 -182v-731h-283z" />
<glyph unicode="i" horiz-adv-x="491" d="M104 0v1102h283v-1102h-283zM104 1237v242h283v-242h-283z" />
<glyph unicode="j" horiz-adv-x="491" d="M-51 -152q12 -4 22 -4h23q37 0 59.5 10.5t33.5 32t14 54t3 79.5v1082h283v-1178q0 -70 -15.5 -123t-52 -89t-99 -54t-157.5 -18q-25 0 -54 1t-60 3v204zM104 1237v242h283v-242h-283z" />
<glyph unicode="k" horiz-adv-x="1024" d="M104 0v1462h283v-772h4l285 412h311l-317 -434l364 -668h-311l-236 453l-100 -131v-322h-283z" />
<glyph unicode="l" horiz-adv-x="491" d="M104 0v1462h283v-1462h-283z" />
<glyph unicode="m" horiz-adv-x="1552" d="M94 0v1102h271v-113h4q53 76 119.5 108.5t158.5 32.5q98 0 165 -45t89 -131h4q33 88 105.5 132t173.5 44q141 0 207.5 -84.5t66.5 -244.5v-801h-282v770q0 70 -26 106.5t-85 36.5q-68 0 -107.5 -45t-39.5 -143v-725h-283v770q0 70 -25.5 106.5t-85.5 36.5 q-68 0 -107.5 -45t-39.5 -143v-725h-283z" />
<glyph unicode="n" horiz-adv-x="1024" d="M94 0v1102h271v-129h4q45 82 116.5 119.5t163.5 37.5q135 0 208 -73.5t73 -239.5v-817h-283v760q0 86 -28.5 119.5t-92.5 33.5q-150 0 -149 -182v-731h-283z" />
<glyph unicode="o" d="M57 551q0 141 22.5 249.5t74 181.5t134.5 110.5t204 37.5h13q117 0 197 -34q84 -36 133.5 -109.5t70 -183t20.5 -252.5q0 -141 -22.5 -249.5t-74 -181.5t-134.5 -111t-203 -38h-13q-118 0 -198 34q-84 36 -133.5 109.5t-70 182.5t-20.5 254zM340 551q0 -84 4 -155.5 t19.5 -123t45 -80t83.5 -28.5q86 0 118.5 90t32.5 297t-32.5 297t-118.5 90q-53 0 -83 -28.5t-45.5 -80t-19.5 -123t-4 -155.5z" />
<glyph unicode="p" horiz-adv-x="1024" d="M94 -360v1462h271v-117h4q47 78 105 111.5t144 33.5q174 0 256 -136t82 -443t-81.5 -443.5t-256.5 -136.5q-80 0 -136 33t-101 98h-4v-462h-283zM377 551q0 -180 27.5 -271.5t121.5 -91.5q92 0 120 91.5t28 271.5t-28 271t-120 91q-94 0 -121.5 -91t-27.5 -271z" />
<glyph unicode="q" horiz-adv-x="1024" d="M68 551q0 307 81.5 443t256.5 136q86 0 144 -33.5t105 -111.5h4v117h271v-1462h-283v462h-4q-45 -66 -101.5 -98.5t-135.5 -32.5q-174 0 -256 136.5t-82 443.5zM350 551q0 -180 28 -271.5t120 -91.5q94 0 121.5 91.5t27.5 271.5t-27.5 271t-121.5 91q-92 0 -120 -91 t-28 -271z" />
<glyph unicode="r" horiz-adv-x="681" d="M94 0v1102h271v-148h4q43 80 104.5 128t149.5 48q12 0 25.5 -1t25.5 -3v-270q-23 2 -44.5 3t-43.5 1q-37 0 -74 -10t-67.5 -33.5t-49 -61.5t-18.5 -93v-662h-283z" />
<glyph unicode="s" horiz-adv-x="909" d="M47 322v38h254v-36q0 -72 38 -116t110 -44q66 0 104.5 32.5t38.5 98.5q0 53 -31 80.5t-72 44.5l-198 72q-117 41 -176.5 115.5t-59.5 191.5q0 68 22.5 128t72 105t126 71.5t185.5 26.5q193 0 285 -81.5t92 -231.5v-45h-254q0 86 -28 126t-97 40q-53 0 -93 -29.5 t-40 -89.5q0 -41 25.5 -73.5t97.5 -55.5l169 -57q133 -45 188.5 -118t55.5 -198q0 -86 -30.5 -151.5t-85 -108.5t-130 -64.5t-163.5 -21.5q-121 0 -199 24.5t-124 71t-64.5 111t-18.5 144.5z" />
<glyph unicode="t" horiz-adv-x="606" d="M12 909v193h144v315h282v-315h164v-193h-164v-596q0 -66 19.5 -93t81.5 -27q16 0 32.5 1t30.5 3v-197q-47 -4 -91 -8t-93 -4q-84 0 -135.5 14t-79 48t-37.5 89.5t-10 139.5v630h-144z" />
<glyph unicode="u" horiz-adv-x="1024" d="M94 285v817h283v-760q0 -86 28.5 -120t92.5 -34q150 0 149 183v731h283v-1102h-271v129h-4q-45 -82 -116.5 -120t-163.5 -38q-135 0 -208 74t-73 240z" />
<glyph unicode="v" horiz-adv-x="909" d="M10 1102h295l158 -789h4l149 789h283l-276 -1102h-328z" />
<glyph unicode="w" horiz-adv-x="1441" d="M14 1102h283l129 -783h4l137 783h307l146 -783h4l133 783h270l-237 -1102h-322l-145 782h-4l-137 -782h-328z" />
<glyph unicode="x" horiz-adv-x="946" d="M14 0l299 567l-286 535h295l151 -332l152 332h295l-287 -535l299 -567h-295l-164 360l-164 -360h-295z" />
<glyph unicode="y" horiz-adv-x="909" d="M10 1102h295l164 -762h4l143 762h283l-266 -1028q-12 -78 -58.5 -196t-92.5 -164t-110.5 -60t-162.5 -14h-115v210q37 -6 74 -6q78 0 111.5 41t39.5 115z" />
<glyph unicode="z" horiz-adv-x="872" d="M49 0v217l440 655h-419v230h753v-217l-440 -656h440v-229h-774z" />
<glyph unicode="{" horiz-adv-x="645" d="M61 459v168q51 0 93.5 47t42.5 119v395q0 131 54 202.5t159 71.5h182v-205h-62q-49 0 -64 -44t-15 -103v-340q0 -92 -41 -152.5t-107 -72.5v-4q66 -12 107 -72.5t41 -153.5v-340q0 -59 15 -103t64 -44h62v-205h-182q-104 0 -158.5 72t-54.5 203v395q0 72 -42 119t-94 47z " />
<glyph unicode="|" horiz-adv-x="454" d="M100 -29v1520h254v-1520h-254z" />
<glyph unicode="}" horiz-adv-x="645" d="M53 -172h62q49 0 64.5 44t15.5 103v340q0 92 40.5 152.5t106.5 73.5v4q-66 12 -106.5 72.5t-40.5 152.5v340q0 59 -15.5 103t-64.5 44h-62v205h183q104 0 158.5 -71.5t54.5 -202.5v-395q0 -72 41.5 -119t93.5 -47v-168q-51 0 -93 -47t-42 -119v-395q0 -131 -54.5 -203 t-158.5 -72h-183v205z" />
<glyph unicode="~" horiz-adv-x="1228" d="M141 539q41 78 100.5 127t151.5 49q109 0 223 -60q84 -45 127 -62.5t86 -17.5q31 0 60 14.5t54.5 36t44 46t26.5 43.5l73 -217q-41 -78 -100 -127t-151 -49q-70 0 -126.5 19t-115.5 50q-43 23 -72.5 36t-51 21.5t-38 10.5t-33.5 2q-31 0 -59.5 -14.5t-54 -36t-44 -46 t-26.5 -42.5z" />
<glyph unicode="&#xa1;" horiz-adv-x="606" d="M162 115l39 579h205l38 -579v-475h-282v475zM162 831v271h282v-271h-282z" />
<glyph unicode="&#xa2;" d="M68 543q0 117 14 219t56 181t118 128t199 59v156h106v-156q66 -4 129.5 -23.5t113.5 -65.5t80.5 -124.5t30.5 -203.5h-270q0 31 -3 64.5t-11 62t-25.5 52t-44.5 34.5v-750q31 18 47.5 48t24.5 65t10 71.5t2 67.5h270q0 -205 -81.5 -319.5t-272.5 -137.5v-180h-106v180 q-82 4 -153 30t-123 89.5t-81.5 173t-29.5 279.5zM350 555q0 -61 2 -123.5t11.5 -115t31 -90.5t60.5 -50v750q-68 -25 -86.5 -118t-18.5 -253z" />
<glyph unicode="&#xa3;" d="M10 164q106 68 173 163t67 199q0 43 -23 101h-209v168h138q-92 178 -93 290q0 76 27 142.5t82 116t137 78t193 28.5q211 0 326.5 -100.5t119.5 -323.5h-270q0 47 -8 89t-26.5 74t-49.5 50t-76 18q-96 0 -134 -50t-38 -111q0 -23 12.5 -74t40.5 -111l58 -116h342v-168 h-289q10 -31 10 -80q0 -90 -41 -162t-143 -158l8 -4q10 4 40 9.5t52 5.5q20 0 50 -9.5t62 -21.5t63.5 -21.5t58.5 -9.5q33 0 89 20.5t124 65.5l90 -192q-152 -98 -305 -99q-37 0 -82 11.5t-94.5 26t-100.5 25.5t-96 11q-51 0 -95 -13.5t-106 -43.5z" />
<glyph unicode="&#xa4;" d="M0 346l102 103q-37 55 -58 121.5t-21 140.5q0 72 20 138t59 124l-102 102l125 127l104 -102q57 39 124 59.5t139 20.5q74 0 140 -21.5t122 -58.5l104 102l125 -127l-102 -102q39 -57 59.5 -124t20.5 -138q0 -72 -20.5 -138.5t-59.5 -123.5l102 -103l-125 -127l-104 105 q-55 -39 -122 -60.5t-140 -21.5q-147 0 -263 82l-104 -105zM240 711q0 -123 67.5 -194t184.5 -71t184 71t67 194t-67.5 193.5t-183.5 70.5q-117 0 -184.5 -70.5t-67.5 -193.5z" />
<glyph unicode="&#xa5;" d="M-35 1421h305l219 -551h5l229 551h295l-297 -624h188v-168h-268l-23 -47v-88h291v-168h-291v-326h-253v326h-291v168h291v88l-23 47h-268v168h188z" />
<glyph unicode="&#xa6;" horiz-adv-x="454" d="M100 -29v555h254v-555h-254zM100 936v555h254v-555h-254z" />
<glyph unicode="&#xa7;" d="M27 627q0 98 49 174t135 119q-123 92 -123 233q0 92 33 155.5t89 104.5t133 59.5t165 18.5q104 0 178 -24.5t121 -68.5t68.5 -105.5t21.5 -133.5h-270q0 61 -29 101q-31 39 -113 38q-59 0 -93 -33.5t-34 -82.5q0 -35 30 -71t101 -71l244 -114q94 -45 159.5 -123 t65.5 -211q0 -37 -11 -80t-32.5 -83t-50 -73.5t-65.5 -54.5q51 -41 80.5 -101.5t29.5 -152.5q0 -186 -109.5 -272t-307.5 -86q-211 0 -312.5 95t-101.5 261v31h270v-31q0 -78 41 -121t103 -43q72 0 103.5 43t31.5 94q0 57 -30 97.5t-101 74.5l-252 121q-117 55 -167 136 t-50 180zM268 668q0 -29 17.5 -61t52.5 -50l203 -111q23 -12 42 -24t38 -27q53 45 74.5 83t21.5 71q0 53 -31 90t-108 78l-197 104q-59 -35 -86 -74.5t-27 -78.5z" />
<glyph unicode="&#xa8;" horiz-adv-x="454" d="M-63 1260v241h229v-241h-229zM289 1260v241h229v-241h-229z" />
<glyph unicode="&#xa9;" horiz-adv-x="1638" d="M59 731q0 158 59.5 296t163 241.5t242 163t295.5 59.5q158 0 296 -59.5t241.5 -163t163 -241.5t59.5 -296t-59.5 -296t-163 -241.5t-241.5 -163t-296 -59.5t-296 59.5t-241.5 163t-163 241.5t-59.5 296zM289 731q0 -111 40 -210t110.5 -173t168 -117t211.5 -43 q115 0 212 43t168 117t111 173.5t40 209.5q0 111 -40 210t-111 173t-168 117t-212 43t-212 -43t-167.5 -117t-110.5 -173t-40 -210zM426 737q0 94 28.5 176t82 141.5t131 94.5t176.5 35q68 0 130 -20.5t111.5 -59.5t82 -98.5t42.5 -135.5h-196q-16 59 -59.5 98.5 t-120.5 39.5q-106 0 -161 -77t-55 -194q0 -55 14.5 -104t42 -86t67.5 -58.5t89 -21.5q76 0 124.5 39t58.5 104h205q-12 -78 -47 -137t-84.5 -99t-111 -61.5t-126.5 -21.5q-98 0 -176 34.5t-133.5 95t-85 142.5t-29.5 174z" />
<glyph unicode="&#xaa;" horiz-adv-x="643" d="M20 940q0 98 42 143t141 66l119 25q41 10 57 26.5t16 42.5q0 76 -76 76q-41 0 -62 -22.5t-21 -57.5v-18h-193v26q0 113 78 158t203 45q88 0 142 -15.5t84 -42t40 -63.5t10 -82v-352q0 -47 4 -72.5t19 -56.5h-205q-10 16 -14.5 35.5t-8.5 36.5q-35 -53 -78 -69.5 t-114 -16.5q-51 0 -86 17t-56.5 44t-31 60.5t-9.5 66.5zM225 969q0 -35 15.5 -60.5t50.5 -25.5t69.5 21.5t34.5 74.5v121q-16 -12 -35.5 -19.5t-35.5 -11.5q-53 -10 -76 -34.5t-23 -65.5z" />
<glyph unicode="&#xab;" horiz-adv-x="872" d="M106 426v332l306 246v-271l-162 -141l162 -141v-271zM461 426v332l305 246v-271l-162 -141l162 -141v-271z" />
<glyph unicode="&#xac;" horiz-adv-x="1228" d="M96 614v254h1037v-667h-254v413h-783z" />
<glyph unicode="&#xad;" horiz-adv-x="757" d="M90 471v242h578v-242h-578z" />
<glyph unicode="&#xae;" horiz-adv-x="1638" d="M59 731q0 158 59.5 296t163 241.5t242 163t295.5 59.5q158 0 296 -59.5t241.5 -163t163 -241.5t59.5 -296t-59.5 -296t-163 -241.5t-241.5 -163t-296 -59.5t-296 59.5t-241.5 163t-163 241.5t-59.5 296zM289 731q0 -111 40 -210t110.5 -173t168 -117t211.5 -43 q115 0 212 43t168 117t111 173.5t40 209.5q0 111 -40 210t-111 173t-168 117t-212 43t-212 -43t-167.5 -117t-110.5 -173t-40 -210zM522 322v819h320q160 0 237.5 -65.5t77.5 -188.5q0 -104 -58.5 -160.5t-144.5 -67.5l203 -337h-196l-193 329h-66v-329h-180zM702 795h138 q59 0 98 18t39 84q0 33 -14.5 53.5t-38 30.5t-51 13t-52.5 3h-119v-202z" />
<glyph unicode="&#xaf;" horiz-adv-x="454" d="M-74 1303v155h602v-155h-602z" />
<glyph unicode="&#xb0;" horiz-adv-x="819" d="M106 1147q0 63 24 118.5t65 96.5t96 64.5t119 23.5q63 0 118.5 -23.5t96.5 -64.5t64.5 -96.5t23.5 -118.5t-23.5 -118.5t-64.5 -96.5t-96.5 -64.5t-118.5 -23.5t-118.5 23.5t-96.5 64.5t-65 96.5t-24 118.5zM262 1147q0 -61 43 -104.5t105 -43.5q61 0 104 43t43 105 q0 61 -43 104t-104 43t-104.5 -43t-43.5 -104z" />
<glyph unicode="&#xb1;" horiz-adv-x="1228" d="M96 0v254h1037v-254h-1037zM96 561v254h391v221h254v-221h392v-254h-392v-221h-254v221h-391z" />
<glyph unicode="&#xb2;" horiz-adv-x="638" d="M0 573q0 117 45 210.5t162 174.5l102 74q59 43 80 81t21 85q0 41 -24 68.5t-64 27.5q-33 0 -53.5 -14t-32 -35.5t-15.5 -48.5t-4 -51h-217v51q0 121 76 187.5t252 66.5q166 0 238.5 -60.5t72.5 -160.5q0 -84 -27.5 -144.5t-107.5 -121.5l-117 -91q-53 -41 -77.5 -73.5 t-30.5 -57.5h360v-168h-639z" />
<glyph unicode="&#xb3;" horiz-adv-x="638" d="M0 831v21h217q2 -57 22.5 -97t77.5 -40q49 0 71 31.5t22 76.5q0 20 -4.5 44t-17.5 42.5t-37.5 30.5t-63.5 12h-58v144h58q59 0 84.5 33.5t25.5 74.5q0 39 -23.5 64.5t-60.5 25.5q-57 0 -75.5 -36.5t-18.5 -86.5h-205q0 139 74 211q37 35 93.5 51.5t129.5 16.5 q154 0 228.5 -53.5t74.5 -169.5q0 -80 -37.5 -130t-105.5 -65v-4q92 -16 130 -69.5t38 -135.5q0 -43 -12.5 -90t-50 -86t-105.5 -63.5t-178 -24.5q-154 0 -223.5 71.5t-69.5 200.5z" />
<glyph unicode="&#xb4;" horiz-adv-x="454" d="M94 1233l111 295h282l-200 -295h-193z" />
<glyph unicode="&#xb5;" horiz-adv-x="1024" d="M94 -360v1462h283v-760q0 -86 28.5 -120t92.5 -34q150 0 149 183v731h283v-1102h-271v129h-4q-45 -82 -105.5 -120t-111.5 -38q-23 0 -37 5.5t-24 11.5v-348h-283z" />
<glyph unicode="&#xb6;" d="M2 1067q0 117 29.5 193.5t83 121.5t128 62.5t165.5 17.5h548v-1745h-217v1553h-149v-1553h-217v969q-184 0 -277.5 97.5t-93.5 283.5z" />
<glyph unicode="&#xb7;" horiz-adv-x="491" d="M47 578q0 86 56.5 142t142.5 56t142 -56t56 -142t-56 -142.5t-142 -56.5t-142.5 56.5t-56.5 142.5z" />
<glyph unicode="&#xb8;" horiz-adv-x="454" d="M0 -406l39 95q23 -12 62.5 -21.5t78.5 -9.5q43 0 73 18.5t30 49.5t-25 47t-65 18q-23 0 -38.5 -3t-31.5 -9l-45 41l117 180h106l-78 -119q18 6 33.5 8t34.5 2q33 0 64.5 -9t56 -27.5t39 -46t12.5 -64.5q0 -92 -66.5 -140t-191.5 -48q-68 0 -124 12t-81 26z" />
<glyph unicode="&#xb9;" horiz-adv-x="638" d="M49 1167v144h17q94 0 151 33.5t72 105.5h176v-877h-229v594h-187z" />
<glyph unicode="&#xba;" horiz-adv-x="643" d="M25 1100q0 86 14 151.5t49 109.5t92.5 66.5t141.5 22.5q88 2 145 -19.5t91 -65.5t47 -110.5t13 -154.5q0 -86 -14 -150.5t-49 -108.5t-92 -66.5t-141 -22.5q-88 -2 -145.5 19.5t-91.5 65.5t-47 110.5t-13 152.5zM229 1100q0 -94 15.5 -155.5t77.5 -61.5q51 0 71.5 50 t20.5 167t-20.5 168t-71.5 51q-61 0 -77 -62.5t-16 -156.5z" />
<glyph unicode="&#xbb;" horiz-adv-x="872" d="M106 180v271l162 141l-162 141v271l306 -246v-332zM461 180v271l162 141l-162 141v271l305 -246v-332z" />
<glyph unicode="&#xbc;" horiz-adv-x="1476" d="M0 1167v144h16q94 0 151.5 33.5t72.5 105.5h176v-877h-230v594h-186zM197 -63l831 1548h182l-831 -1548h-182zM821 158v186l312 533h253v-551h91v-168h-91v-158h-217v158h-348zM989 326h180v297h-4z" />
<glyph unicode="&#xbd;" horiz-adv-x="1476" d="M0 1167v144h16q94 0 151.5 33.5t72.5 105.5h176v-877h-230v594h-186zM147 -63l832 1548h182l-831 -1548h-183zM838 0q0 117 45 210t161 175l103 74q59 43 79.5 81t20.5 85q0 41 -23.5 68.5t-64.5 27.5q-33 0 -53.5 -14.5t-31.5 -36t-15 -48t-4 -51.5h-217v52 q0 121 75.5 187.5t251.5 66.5q166 0 239 -60.5t73 -161.5q0 -84 -28 -144t-108 -122l-116 -90q-53 -41 -78 -73.5t-31 -57.5h361v-168h-639z" />
<glyph unicode="&#xbe;" horiz-adv-x="1476" d="M0 831v21h217q2 -57 22.5 -97t77.5 -40q49 0 71 31.5t22 76.5q0 20 -4.5 44t-17.5 42.5t-37.5 30.5t-63.5 12h-58v144h58q59 0 84.5 33.5t25.5 74.5q0 39 -23.5 64.5t-60.5 25.5q-57 0 -75.5 -36.5t-18.5 -86.5h-205q0 139 74 211q37 35 93.5 51.5t129.5 16.5 q154 0 228.5 -53.5t74.5 -169.5q0 -80 -37.5 -130t-105.5 -65v-4q92 -16 130 -69.5t38 -135.5q0 -43 -12.5 -90t-50 -86t-105.5 -63.5t-178 -24.5q-154 0 -223.5 71.5t-69.5 200.5zM276 -63l832 1548h182l-831 -1548h-183zM821 158v186l312 533h253v-551h91v-168h-91v-158 h-217v158h-348zM989 326h180v297h-4z" />
<glyph unicode="&#xbf;" horiz-adv-x="985" d="M74 18q0 86 27.5 160t101.5 160l82 92q53 59 76.5 108.5t23.5 127.5v30h254v-80q0 -102 -28.5 -172.5t-98.5 -148.5l-78 -88q-43 -47 -60.5 -101.5t-17.5 -115.5q0 -78 35 -126t105 -48q78 0 111.5 62.5t33.5 162.5v51h270v-47q0 -92 -25.5 -170t-75.5 -133t-127 -87 t-177 -32q-217 0 -324.5 107.5t-107.5 287.5zM371 831v271h282v-271h-282z" />
<glyph unicode="&#xc0;" horiz-adv-x="1138" d="M0 0l387 1462h365l387 -1462h-308l-67 309h-389l-68 -309h-307zM303 1843h283l110 -295h-192zM426 551h287l-142 657h-4z" />
<glyph unicode="&#xc1;" horiz-adv-x="1138" d="M0 0l387 1462h365l387 -1462h-308l-67 309h-389l-68 -309h-307zM426 551h287l-142 657h-4zM434 1548l111 295h282l-200 -295h-193z" />
<glyph unicode="&#xc2;" horiz-adv-x="1138" d="M0 0l387 1462h365l387 -1462h-308l-67 309h-389l-68 -309h-307zM260 1548l160 295h295l160 -295h-218l-94 174l-98 -174h-205zM426 551h287l-142 657h-4z" />
<glyph unicode="&#xc3;" horiz-adv-x="1138" d="M0 0l387 1462h365l387 -1462h-308l-67 309h-389l-68 -309h-307zM248 1566q16 123 64 188.5t126 65.5q57 0 88 -14l99 -43q31 -12 61 -12q29 0 43 26.5t14 46.5h148q-10 -111 -61.5 -182.5t-129.5 -71.5q-33 0 -65.5 11.5t-64 24t-60.5 23.5t-53 11q-51 0 -66 -74h-143z M426 551h287l-142 657h-4z" />
<glyph unicode="&#xc4;" horiz-adv-x="1138" d="M0 0l387 1462h365l387 -1462h-308l-67 309h-389l-68 -309h-307zM279 1579v241h229v-241h-229zM426 551h287l-142 657h-4zM631 1579v241h229v-241h-229z" />
<glyph unicode="&#xc5;" horiz-adv-x="1138" d="M0 0l387 1462h365l387 -1462h-308l-67 309h-389l-68 -309h-307zM340 1728q0 49 18.5 91t50 72t73.5 46t89 16t89 -16t74 -46t50.5 -72t18.5 -91q0 -102 -67.5 -161.5t-164.5 -59.5q-98 0 -164.5 59.5t-66.5 161.5zM426 551h287l-142 657h-4zM455 1728q0 -49 33.5 -83 t82.5 -34t83 34t34 83t-34 83t-83 34t-82.5 -34t-33.5 -83z" />
<glyph unicode="&#xc6;" horiz-adv-x="1554" d="M-10 0l551 1462h948v-241h-481v-344h450v-242h-450v-393h501v-242h-784v309h-326l-102 -309h-307zM479 551h246v682h-18z" />
<glyph unicode="&#xc7;" horiz-adv-x="1099" d="M72 731q0 166 15 306.5t67.5 240.5t150.5 156.5t264 56.5q158 0 249 -51t136 -130t56.5 -170t11.5 -171h-295q0 160 -38 232.5t-138 72.5q-55 0 -91 -30t-56.5 -96.5t-28.5 -174t-8 -262.5q0 -166 11 -268.5t34.5 -159t59.5 -76t83 -19.5q39 0 73 13.5t58.5 53.5 t38.5 112.5t14 191.5h295q0 -90 -9 -172t-34.5 -152.5t-71 -126t-114.5 -90.5q-82 -41 -201 -47l-59 -90q18 6 33.5 8t33.5 2q33 0 65 -9t56.5 -27.5t38.5 -46t12 -64.5q0 -92 -66.5 -140t-191.5 -48q-68 0 -124 12t-80 26l38 95q23 -12 63 -21.5t79 -9.5q43 0 72.5 18.5 t29.5 49.5t-24.5 47t-65.5 18q-23 0 -38 -3t-32 -9l-45 41l101 155q-119 8 -195 52q-76 43 -122 111.5t-70.5 157.5t-32.5 198.5t-8 236.5z" />
<glyph unicode="&#xc8;" horiz-adv-x="985" d="M102 0v1462h818v-241h-523v-344h492v-242h-492v-393h543v-242h-838zM260 1843h283l110 -295h-192z" />
<glyph unicode="&#xc9;" horiz-adv-x="985" d="M102 0v1462h818v-241h-523v-344h492v-242h-492v-393h543v-242h-838zM407 1548l111 295h282l-200 -295h-193z" />
<glyph unicode="&#xca;" horiz-adv-x="985" d="M102 0v1462h818v-241h-523v-344h492v-242h-492v-393h543v-242h-838zM207 1548l160 295h295l160 -295h-218l-94 174l-98 -174h-205z" />
<glyph unicode="&#xcb;" horiz-adv-x="985" d="M102 0v1462h818v-241h-523v-344h492v-242h-492v-393h543v-242h-838zM218 1575v241h229v-241h-229zM570 1575v241h229v-241h-229z" />
<glyph unicode="&#xcc;" horiz-adv-x="528" d="M20 1843h283l110 -295h-192zM117 0v1462h295v-1462h-295z" />
<glyph unicode="&#xcd;" horiz-adv-x="528" d="M117 0v1462h295v-1462h-295zM119 1548l111 295h282l-200 -295h-193z" />
<glyph unicode="&#xce;" horiz-adv-x="528" d="M-39 1548l160 295h295l160 -295h-218l-94 174l-98 -174h-205zM117 0v1462h295v-1462h-295z" />
<glyph unicode="&#xcf;" horiz-adv-x="528" d="M-24 1575v241h229v-241h-229zM117 0v1462h295v-1462h-295zM328 1575v241h229v-241h-229z" />
<glyph unicode="&#xd0;" horiz-adv-x="1175" d="M0 645v217h117v600h483q154 0 248 -50t146.5 -143t70.5 -224.5t18 -292.5q0 -195 -23.5 -336.5t-80.5 -233.5t-153.5 -137t-243.5 -45h-465v645h-117zM412 217h131q76 0 124 26.5t75.5 88t36.5 162t9 249.5q0 125 -8 218.5t-33.5 157t-75.5 95t-134 31.5h-125v-383h190 v-217h-190v-428z" />
<glyph unicode="&#xd1;" horiz-adv-x="1175" d="M102 0v1462h340l357 -1001h4v1001h270v-1462h-336l-360 1024h-4v-1024h-271zM271 1566q16 123 64 188.5t126 65.5q57 0 88 -14l99 -43q31 -12 61 -12q29 0 43 26.5t14 46.5h148q-10 -111 -61.5 -182.5t-129.5 -71.5q-33 0 -65.5 11.5t-64 24t-60.5 23.5t-53 11 q-51 0 -66 -74h-143z" />
<glyph unicode="&#xd2;" horiz-adv-x="1138" d="M72 731q0 166 15 306.5t67.5 240.5t150.5 156.5t264 56.5t264.5 -56.5t150.5 -156.5t67.5 -240.5t15.5 -306.5t-15.5 -306t-67.5 -240.5t-150.5 -157t-264.5 -56.5t-264 56.5t-150.5 157t-67.5 240.5t-15 306zM303 1843h283l110 -295h-192zM367 731q0 -147 7 -250.5 t28.5 -168t61.5 -94.5t105 -30q66 0 106 30t61.5 94.5t28.5 168t7 250.5t-7 249.5t-28.5 168t-61.5 95.5t-106 30t-105.5 -30t-61 -95.5t-28.5 -168t-7 -249.5z" />
<glyph unicode="&#xd3;" horiz-adv-x="1138" d="M72 731q0 166 15 306.5t67.5 240.5t150.5 156.5t264 56.5t264.5 -56.5t150.5 -156.5t67.5 -240.5t15.5 -306.5t-15.5 -306t-67.5 -240.5t-150.5 -157t-264.5 -56.5t-264 56.5t-150.5 157t-67.5 240.5t-15 306zM367 731q0 -147 7 -250.5t28.5 -168t61.5 -94.5t105 -30 q66 0 106 30t61.5 94.5t28.5 168t7 250.5t-7 249.5t-28.5 168t-61.5 95.5t-106 30t-105.5 -30t-61 -95.5t-28.5 -168t-7 -249.5zM465 1548l111 295h282l-200 -295h-193z" />
<glyph unicode="&#xd4;" horiz-adv-x="1138" d="M72 731q0 166 15 306.5t67.5 240.5t150.5 156.5t264 56.5t264.5 -56.5t150.5 -156.5t67.5 -240.5t15.5 -306.5t-15.5 -306t-67.5 -240.5t-150.5 -157t-264.5 -56.5t-264 56.5t-150.5 157t-67.5 240.5t-15 306zM266 1548l160 295h295l160 -295h-218l-94 174l-98 -174h-205 zM367 731q0 -147 7 -250.5t28.5 -168t61.5 -94.5t105 -30q66 0 106 30t61.5 94.5t28.5 168t7 250.5t-7 249.5t-28.5 168t-61.5 95.5t-106 30t-105.5 -30t-61 -95.5t-28.5 -168t-7 -249.5z" />
<glyph unicode="&#xd5;" horiz-adv-x="1138" d="M72 731q0 166 15 306.5t67.5 240.5t150.5 156.5t264 56.5t264.5 -56.5t150.5 -156.5t67.5 -240.5t15.5 -306.5t-15.5 -306t-67.5 -240.5t-150.5 -157t-264.5 -56.5t-264 56.5t-150.5 157t-67.5 240.5t-15 306zM246 1566q16 123 64 188.5t126 65.5q57 0 88 -14l99 -43 q31 -12 61 -12q29 0 43 26.5t14 46.5h148q-10 -111 -61.5 -182.5t-129.5 -71.5q-33 0 -65.5 11.5t-64 24t-60.5 23.5t-53 11q-51 0 -66 -74h-143zM367 731q0 -147 7 -250.5t28.5 -168t61.5 -94.5t105 -30q66 0 106 30t61.5 94.5t28.5 168t7 250.5t-7 249.5t-28.5 168 t-61.5 95.5t-106 30t-105.5 -30t-61 -95.5t-28.5 -168t-7 -249.5z" />
<glyph unicode="&#xd6;" horiz-adv-x="1138" d="M72 731q0 166 15 306.5t67.5 240.5t150.5 156.5t264 56.5t264.5 -56.5t150.5 -156.5t67.5 -240.5t15.5 -306.5t-15.5 -306t-67.5 -240.5t-150.5 -157t-264.5 -56.5t-264 56.5t-150.5 157t-67.5 240.5t-15 306zM281 1575v241h229v-241h-229zM367 731q0 -147 7 -250.5 t28.5 -168t61.5 -94.5t105 -30q66 0 106 30t61.5 94.5t28.5 168t7 250.5t-7 249.5t-28.5 168t-61.5 95.5t-106 30t-105.5 -30t-61 -95.5t-28.5 -168t-7 -249.5zM633 1575v241h229v-241h-229z" />
<glyph unicode="&#xd7;" horiz-adv-x="1228" d="M121 201l319 317l-319 318l176 176l317 -320l318 320l176 -176l-320 -318l320 -317l-176 -176l-318 319l-317 -319z" />
<glyph unicode="&#xd8;" horiz-adv-x="1138" d="M72 731q0 166 15 306.5t67.5 240.5t150.5 156.5t264 56.5q150 0 248 -49l53 125l99 -43l-62 -144q51 -47 83 -113.5t48.5 -149.5t22.5 -180t6 -206q0 -166 -15.5 -306t-67.5 -240.5t-150.5 -157t-264.5 -56.5q-154 0 -247 49l-54 -124l-98 43l61 143q-51 47 -82.5 113.5 t-48 149.5t-22.5 180.5t-6 205.5zM367 731q0 -98 2 -172t10 -131h4l330 772q-47 74 -144 74q-66 0 -105.5 -30t-61 -95.5t-28.5 -167.5t-7 -250zM426 264q39 -76 143 -76q66 0 106 30t61.5 94.5t28.5 168t7 250.5q0 94 -2 169t-10 134h-4z" />
<glyph unicode="&#xd9;" horiz-adv-x="1101" d="M84 442v1020h295v-1020q0 -55 7 -101t26.5 -80t52.5 -53.5t86 -19.5q51 0 85 19.5t53.5 53.5t26.5 80t7 101v1020h295v-1020q0 -139 -39 -230t-104.5 -144.5t-149.5 -75t-174 -21.5t-174 18.5t-149.5 71t-104.5 143.5t-39 238zM289 1843h283l110 -295h-192z" />
<glyph unicode="&#xda;" horiz-adv-x="1101" d="M84 442v1020h295v-1020q0 -55 7 -101t26.5 -80t52.5 -53.5t86 -19.5q51 0 85 19.5t53.5 53.5t26.5 80t7 101v1020h295v-1020q0 -139 -39 -230t-104.5 -144.5t-149.5 -75t-174 -21.5t-174 18.5t-149.5 71t-104.5 143.5t-39 238zM450 1548l111 295h282l-200 -295h-193z" />
<glyph unicode="&#xdb;" horiz-adv-x="1101" d="M84 442v1020h295v-1020q0 -55 7 -101t26.5 -80t52.5 -53.5t86 -19.5q51 0 85 19.5t53.5 53.5t26.5 80t7 101v1020h295v-1020q0 -139 -39 -230t-104.5 -144.5t-149.5 -75t-174 -21.5t-174 18.5t-149.5 71t-104.5 143.5t-39 238zM246 1548l160 295h295l160 -295h-218 l-94 174l-98 -174h-205z" />
<glyph unicode="&#xdc;" horiz-adv-x="1101" d="M84 442v1020h295v-1020q0 -55 7 -101t26.5 -80t52.5 -53.5t86 -19.5q51 0 85 19.5t53.5 53.5t26.5 80t7 101v1020h295v-1020q0 -139 -39 -230t-104.5 -144.5t-149.5 -75t-174 -21.5t-174 18.5t-149.5 71t-104.5 143.5t-39 238zM261 1575v241h229v-241h-229zM613 1575v241 h229v-241h-229z" />
<glyph unicode="&#xdd;" horiz-adv-x="1064" d="M6 1462h332l192 -565h5l204 565h320l-379 -887v-575h-295v575zM442 1552l111 295h282l-200 -295h-193z" />
<glyph unicode="&#xde;" horiz-adv-x="1062" d="M102 0v1462h295v-262h221q113 0 190 -38t124 -99.5t67.5 -140t20.5 -160.5q0 -115 -34 -198t-94.5 -136t-146.5 -79.5t-190 -26.5h-158v-322h-295zM397 539h131q88 0 142.5 53t54.5 166q0 111 -47 168t-158 57h-123v-444z" />
<glyph unicode="&#xdf;" horiz-adv-x="1024" d="M84 0v1079q0 217 105.5 314.5t328.5 97.5q197 0 300.5 -88t103.5 -262q0 -57 -8.5 -102.5t-29 -82t-56 -65.5t-89.5 -51v-4q123 -20 175.5 -124t52.5 -270q0 -76 -13.5 -155.5t-53.5 -146t-111.5 -109.5t-188.5 -43q-35 0 -74 2t-61 6v192q18 -8 43 -8q55 0 90 20.5 t54.5 59.5t25.5 94.5t6 124.5q0 113 -35 180.5t-129 67.5h-51v193h35q74 0 104.5 54t30.5 140q0 37 -6 70t-21.5 58.5t-42 40.5t-65.5 15q-84 0 -110.5 -63.5t-26.5 -161.5v-1073h-283z" />
<glyph unicode="&#xe0;" horiz-adv-x="985" d="M57 287q0 78 16.5 134t50.5 96t86 66.5t126 47.5l160 43q63 16 87.5 45t24.5 84q0 63 -29.5 99t-101.5 36q-66 0 -98.5 -39t-32.5 -104v-31h-254v27q0 94 31 159.5t83 105.5t122.5 57t150.5 17q125 0 204 -24.5t122 -69.5t58.5 -107.5t15.5 -135.5v-580q0 -78 7 -121 t27 -92h-270q-14 27 -21.5 56.5t-13.5 58.5h-4q-49 -86 -113.5 -115t-166.5 -29q-74 0 -125.5 29t-82 74t-45 101t-14.5 112zM237 1528h283l110 -295h-192zM328 317q0 -63 24.5 -108t81.5 -45q29 0 59.5 9t56 29.5t42 52.5t16.5 79v217q-29 -23 -61.5 -36t-59.5 -19 q-86 -18 -122.5 -61.5t-36.5 -117.5z" />
<glyph unicode="&#xe1;" horiz-adv-x="985" d="M57 287q0 78 16.5 134t50.5 96t86 66.5t126 47.5l160 43q63 16 87.5 45t24.5 84q0 63 -29.5 99t-101.5 36q-66 0 -98.5 -39t-32.5 -104v-31h-254v27q0 94 31 159.5t83 105.5t122.5 57t150.5 17q125 0 204 -24.5t122 -69.5t58.5 -107.5t15.5 -135.5v-580q0 -78 7 -121 t27 -92h-270q-14 27 -21.5 56.5t-13.5 58.5h-4q-49 -86 -113.5 -115t-166.5 -29q-74 0 -125.5 29t-82 74t-45 101t-14.5 112zM328 317q0 -63 24.5 -108t81.5 -45q29 0 59.5 9t56 29.5t42 52.5t16.5 79v217q-29 -23 -61.5 -36t-59.5 -19q-86 -18 -122.5 -61.5t-36.5 -117.5z M389 1233l111 295h282l-200 -295h-193z" />
<glyph unicode="&#xe2;" horiz-adv-x="985" d="M57 287q0 78 16.5 134t50.5 96t86 66.5t126 47.5l160 43q63 16 87.5 45t24.5 84q0 63 -29.5 99t-101.5 36q-66 0 -98.5 -39t-32.5 -104v-31h-254v27q0 94 31 159.5t83 105.5t122.5 57t150.5 17q125 0 204 -24.5t122 -69.5t58.5 -107.5t15.5 -135.5v-580q0 -78 7 -121 t27 -92h-270q-14 27 -21.5 56.5t-13.5 58.5h-4q-49 -86 -113.5 -115t-166.5 -29q-74 0 -125.5 29t-82 74t-45 101t-14.5 112zM184 1233l160 295h295l160 -295h-218l-94 174l-98 -174h-205zM328 317q0 -63 24.5 -108t81.5 -45q29 0 59.5 9t56 29.5t42 52.5t16.5 79v217 q-29 -23 -61.5 -36t-59.5 -19q-86 -18 -122.5 -61.5t-36.5 -117.5z" />
<glyph unicode="&#xe3;" horiz-adv-x="985" d="M57 287q0 78 16.5 134t50.5 96t86 66.5t126 47.5l160 43q63 16 87.5 45t24.5 84q0 63 -29.5 99t-101.5 36q-66 0 -98.5 -39t-32.5 -104v-31h-254v27q0 94 31 159.5t83 105.5t122.5 57t150.5 17q125 0 204 -24.5t122 -69.5t58.5 -107.5t15.5 -135.5v-580q0 -78 7 -121 t27 -92h-270q-14 27 -21.5 56.5t-13.5 58.5h-4q-49 -86 -113.5 -115t-166.5 -29q-74 0 -125.5 29t-82 74t-45 101t-14.5 112zM174 1251q16 123 64 188.5t126 65.5q57 0 88 -14l99 -43q31 -12 61 -12q29 0 43 26.5t14 46.5h148q-10 -111 -61.5 -182.5t-129.5 -71.5 q-33 0 -65.5 11.5t-64 24t-60.5 23.5t-53 11q-51 0 -66 -74h-143zM328 317q0 -63 24.5 -108t81.5 -45q29 0 59.5 9t56 29.5t42 52.5t16.5 79v217q-29 -23 -61.5 -36t-59.5 -19q-86 -18 -122.5 -61.5t-36.5 -117.5z" />
<glyph unicode="&#xe4;" horiz-adv-x="985" d="M57 287q0 78 16.5 134t50.5 96t86 66.5t126 47.5l160 43q63 16 87.5 45t24.5 84q0 63 -29.5 99t-101.5 36q-66 0 -98.5 -39t-32.5 -104v-31h-254v27q0 94 31 159.5t83 105.5t122.5 57t150.5 17q125 0 204 -24.5t122 -69.5t58.5 -107.5t15.5 -135.5v-580q0 -78 7 -121 t27 -92h-270q-14 27 -21.5 56.5t-13.5 58.5h-4q-49 -86 -113.5 -115t-166.5 -29q-74 0 -125.5 29t-82 74t-45 101t-14.5 112zM203 1260v241h229v-241h-229zM328 317q0 -63 24.5 -108t81.5 -45q29 0 59.5 9t56 29.5t42 52.5t16.5 79v217q-29 -23 -61.5 -36t-59.5 -19 q-86 -18 -122.5 -61.5t-36.5 -117.5zM555 1260v241h229v-241h-229z" />
<glyph unicode="&#xe5;" horiz-adv-x="985" d="M57 287q0 78 16.5 134t50.5 96t86 66.5t126 47.5l160 43q63 16 87.5 45t24.5 84q0 63 -29.5 99t-101.5 36q-66 0 -98.5 -39t-32.5 -104v-31h-254v27q0 94 31 159.5t83 105.5t122.5 57t150.5 17q125 0 204 -24.5t122 -69.5t58.5 -107.5t15.5 -135.5v-580q0 -78 7 -121 t27 -92h-270q-14 27 -21.5 56.5t-13.5 58.5h-4q-49 -86 -113.5 -115t-166.5 -29q-74 0 -125.5 29t-82 74t-45 101t-14.5 112zM254 1413q0 49 18.5 91t50 72t73.5 46t89 16t89 -16t74 -46t50.5 -72t18.5 -91q0 -102 -67.5 -161.5t-164.5 -59.5q-98 0 -164.5 59.5t-66.5 161.5 zM328 317q0 -63 24.5 -108t81.5 -45q29 0 59.5 9t56 29.5t42 52.5t16.5 79v217q-29 -23 -61.5 -36t-59.5 -19q-86 -18 -122.5 -61.5t-36.5 -117.5zM369 1413q0 -49 33.5 -83t82.5 -34t83 34t34 83t-34 83t-83 34t-82.5 -34t-33.5 -83z" />
<glyph unicode="&#xe6;" horiz-adv-x="1478" d="M55 287q0 78 16.5 134t50.5 96t86 66.5t126 47.5l160 43q63 16 87.5 45t24.5 84q0 63 -29.5 99t-101.5 36q-66 0 -98.5 -39t-32.5 -104v-31h-254v27q0 94 31 159.5t83 105.5t122.5 57t150.5 17q111 0 175.5 -27.5t109.5 -103.5q31 63 99.5 97t160.5 34q123 0 200.5 -39.5 t123 -112.5t61.5 -176.5t16 -230.5v-63h-555v-88q0 -49 7.5 -95t23.5 -82t42 -57.5t65 -21.5q70 0 102.5 51t44.5 156h254q-8 -193 -103.5 -296.5t-293.5 -103.5q-76 0 -132.5 16.5t-96.5 43t-64.5 60.5t-38.5 71q-33 -61 -69 -99t-78 -57.5t-93 -27t-116 -7.5 q-74 0 -125.5 29t-82 74t-45 101t-14.5 112zM326 317q0 -63 24.5 -108t81.5 -45q29 0 59.5 9t56 29.5t42 52.5t16.5 79v217q-29 -23 -61.5 -36t-59.5 -19q-86 -18 -122.5 -61.5t-36.5 -117.5zM868 676h285q-4 129 -29.5 195.5t-111.5 66.5q-41 0 -69 -19.5t-44 -51 t-23.5 -70.5t-7.5 -78v-43z" />
<glyph unicode="&#xe7;" horiz-adv-x="948" d="M53 551q0 170 33 281.5t92.5 178t141 93t180.5 26.5q197 0 296 -114.5t99 -310.5h-270q0 39 -5.5 78.5t-18.5 71.5t-38.5 51.5t-64.5 19.5q-53 0 -85 -23.5t-48.5 -70t-22.5 -118t-6 -165.5q0 -102 6 -175t22.5 -120t46 -68.5t76.5 -21.5q72 0 105 61.5t33 196.5h270 q0 -217 -98 -334q-82 -98 -262 -115l-60 -92q18 6 33.5 8t34.5 2q33 0 64.5 -9t56 -27.5t39 -46t12.5 -64.5q0 -92 -66.5 -140t-191.5 -48q-68 0 -124.5 12t-80.5 26l39 95q23 -12 62.5 -21.5t78.5 -9.5q43 0 73 18.5t30 49.5t-25 47t-66 18q-23 0 -38 -3t-31 -9l-45 41 l98 153q-39 2 -74 9.5t-65 17.5q-117 43 -176.5 172t-59.5 379z" />
<glyph unicode="&#xe8;" horiz-adv-x="948" d="M53 561q0 111 15.5 213.5t61.5 182t132 126.5t230 47q123 0 201.5 -39.5t123.5 -112.5t61.5 -176.5t16.5 -230.5v-63h-559v-88q0 -49 7 -95t23.5 -82t43 -57.5t65.5 -21.5q72 0 104.5 51t45.5 156h254q-8 -193 -102.5 -296.5t-297.5 -103.5q-154 0 -239.5 53.5 t-126.5 138.5t-50.5 190.5t-9.5 207.5zM225 1528h283l110 -295h-192zM336 676h289q-2 63 -8.5 111.5t-21.5 82t-43 51t-71 17.5t-70.5 -19.5t-44 -51t-23.5 -70.5t-7 -78v-43z" />
<glyph unicode="&#xe9;" horiz-adv-x="948" d="M53 561q0 111 15.5 213.5t61.5 182t132 126.5t230 47q123 0 201.5 -39.5t123.5 -112.5t61.5 -176.5t16.5 -230.5v-63h-559v-88q0 -49 7 -95t23.5 -82t43 -57.5t65.5 -21.5q72 0 104.5 51t45.5 156h254q-8 -193 -102.5 -296.5t-297.5 -103.5q-154 0 -239.5 53.5 t-126.5 138.5t-50.5 190.5t-9.5 207.5zM336 676h289q-2 63 -8.5 111.5t-21.5 82t-43 51t-71 17.5t-70.5 -19.5t-44 -51t-23.5 -70.5t-7 -78v-43zM389 1233l111 295h282l-200 -295h-193z" />
<glyph unicode="&#xea;" horiz-adv-x="948" d="M53 561q0 111 15.5 213.5t61.5 182t132 126.5t230 47q123 0 201.5 -39.5t123.5 -112.5t61.5 -176.5t16.5 -230.5v-63h-559v-88q0 -49 7 -95t23.5 -82t43 -57.5t65.5 -21.5q72 0 104.5 51t45.5 156h254q-8 -193 -102.5 -296.5t-297.5 -103.5q-154 0 -239.5 53.5 t-126.5 138.5t-50.5 190.5t-9.5 207.5zM184 1233l160 295h295l160 -295h-218l-94 174l-98 -174h-205zM336 676h289q-2 63 -8.5 111.5t-21.5 82t-43 51t-71 17.5t-70.5 -19.5t-44 -51t-23.5 -70.5t-7 -78v-43z" />
<glyph unicode="&#xeb;" horiz-adv-x="948" d="M53 561q0 111 15.5 213.5t61.5 182t132 126.5t230 47q123 0 201.5 -39.5t123.5 -112.5t61.5 -176.5t16.5 -230.5v-63h-559v-88q0 -49 7 -95t23.5 -82t43 -57.5t65.5 -21.5q72 0 104.5 51t45.5 156h254q-8 -193 -102.5 -296.5t-297.5 -103.5q-154 0 -239.5 53.5 t-126.5 138.5t-50.5 190.5t-9.5 207.5zM201 1260v241h229v-241h-229zM336 676h289q-2 63 -8.5 111.5t-21.5 82t-43 51t-71 17.5t-70.5 -19.5t-44 -51t-23.5 -70.5t-7 -78v-43zM553 1260v241h229v-241h-229z" />
<glyph unicode="&#xec;" horiz-adv-x="491" d="M-8 1528h283l110 -295h-192zM104 0v1102h283v-1102h-283z" />
<glyph unicode="&#xed;" horiz-adv-x="491" d="M104 0v1102h283v-1102h-283zM104 1233l111 295h282l-200 -295h-193z" />
<glyph unicode="&#xee;" horiz-adv-x="491" d="M-60 1233l160 295h295l160 -295h-218l-94 174l-98 -174h-205zM104 0v1102h283v-1102h-283z" />
<glyph unicode="&#xef;" horiz-adv-x="491" d="M-45 1260v241h229v-241h-229zM104 0v1102h283v-1102h-283zM307 1260v241h229v-241h-229z" />
<glyph unicode="&#xf0;" d="M57 551q0 123 20.5 222t63.5 170t110.5 109t162.5 38q35 0 71.5 -12.5t71.5 -41.5l4 4q-37 59 -86 122t-102 124l-158 -92l-80 86l156 92q-35 35 -69 68t-66 63l213 125q37 -33 70.5 -64.5t66.5 -64.5l153 92l89 -86l-158 -92q82 -90 144.5 -183t105.5 -196.5 t64.5 -222.5t21.5 -260t-22.5 -249.5t-74 -181.5t-134.5 -111t-203 -38q-127 -2 -211 34t-133.5 109.5t-70 182.5t-20.5 254zM340 537q0 -82 4 -151t19.5 -118t45 -76.5t83.5 -27.5q86 0 118.5 87t32.5 286q0 190 -32.5 275t-118.5 85q-53 0 -83 -27.5t-45.5 -76 t-19.5 -114.5t-4 -142z" />
<glyph unicode="&#xf1;" horiz-adv-x="1024" d="M94 0v1102h271v-129h4q45 82 116.5 119.5t163.5 37.5q135 0 208 -73.5t73 -239.5v-817h-283v760q0 86 -28.5 119.5t-92.5 33.5q-150 0 -149 -182v-731h-283zM176 1251q16 123 64 188.5t126 65.5q57 0 88 -14l99 -43q31 -12 61 -12q29 0 43 26.5t14 46.5h148 q-10 -111 -61.5 -182.5t-129.5 -71.5q-33 0 -65.5 11.5t-64 24t-60.5 23.5t-53 11q-51 0 -66 -74h-143z" />
<glyph unicode="&#xf2;" d="M57 551q0 141 22.5 249.5t74 181.5t134.5 110.5t204 37.5q127 2 210.5 -33.5t133 -109.5t70 -183.5t20.5 -252.5q0 -141 -22.5 -249.5t-74 -181.5t-134.5 -111t-203 -38q-127 -2 -211 34t-133.5 109.5t-70 182.5t-20.5 254zM219 1528h283l110 -295h-192zM340 551 q0 -84 4 -155.5t19.5 -123t45 -80t83.5 -28.5q86 0 118.5 90t32.5 297t-32.5 297t-118.5 90q-53 0 -83 -28.5t-45.5 -80t-19.5 -123t-4 -155.5z" />
<glyph unicode="&#xf3;" d="M57 551q0 141 22.5 249.5t74 181.5t134.5 110.5t204 37.5q127 2 210.5 -33.5t133 -109.5t70 -183.5t20.5 -252.5q0 -141 -22.5 -249.5t-74 -181.5t-134.5 -111t-203 -38q-127 -2 -211 34t-133.5 109.5t-70 182.5t-20.5 254zM340 551q0 -84 4 -155.5t19.5 -123t45 -80 t83.5 -28.5q86 0 118.5 90t32.5 297t-32.5 297t-118.5 90q-53 0 -83 -28.5t-45.5 -80t-19.5 -123t-4 -155.5zM391 1233l111 295h282l-200 -295h-193z" />
<glyph unicode="&#xf4;" d="M57 551q0 141 22.5 249.5t74 181.5t134.5 110.5t204 37.5q127 2 210.5 -33.5t133 -109.5t70 -183.5t20.5 -252.5q0 -141 -22.5 -249.5t-74 -181.5t-134.5 -111t-203 -38q-127 -2 -211 34t-133.5 109.5t-70 182.5t-20.5 254zM184 1233l160 295h295l160 -295h-218l-94 174 l-98 -174h-205zM340 551q0 -84 4 -155.5t19.5 -123t45 -80t83.5 -28.5q86 0 118.5 90t32.5 297t-32.5 297t-118.5 90q-53 0 -83 -28.5t-45.5 -80t-19.5 -123t-4 -155.5z" />
<glyph unicode="&#xf5;" d="M57 551q0 141 22.5 249.5t74 181.5t134.5 110.5t204 37.5q127 2 210.5 -33.5t133 -109.5t70 -183.5t20.5 -252.5q0 -141 -22.5 -249.5t-74 -181.5t-134.5 -111t-203 -38q-127 -2 -211 34t-133.5 109.5t-70 182.5t-20.5 254zM170 1251q16 123 64 188.5t126 65.5 q57 0 88 -14l99 -43q31 -12 61 -12q29 0 43 26.5t14 46.5h148q-10 -111 -61.5 -182.5t-129.5 -71.5q-33 0 -65.5 11.5t-64 24t-60.5 23.5t-53 11q-51 0 -66 -74h-143zM340 551q0 -84 4 -155.5t19.5 -123t45 -80t83.5 -28.5q86 0 118.5 90t32.5 297t-32.5 297t-118.5 90 q-53 0 -83 -28.5t-45.5 -80t-19.5 -123t-4 -155.5z" />
<glyph unicode="&#xf6;" d="M57 551q0 141 22.5 249.5t74 181.5t134.5 110.5t204 37.5q127 2 210.5 -33.5t133 -109.5t70 -183.5t20.5 -252.5q0 -141 -22.5 -249.5t-74 -181.5t-134.5 -111t-203 -38q-127 -2 -211 34t-133.5 109.5t-70 182.5t-20.5 254zM201 1260v241h229v-241h-229zM340 551 q0 -84 4 -155.5t19.5 -123t45 -80t83.5 -28.5q86 0 118.5 90t32.5 297t-32.5 297t-118.5 90q-53 0 -83 -28.5t-45.5 -80t-19.5 -123t-4 -155.5zM553 1260v241h229v-241h-229z" />
<glyph unicode="&#xf7;" horiz-adv-x="1228" d="M96 391v254h1037v-254h-1037zM416 84q0 86 56 142.5t142 56.5t142.5 -56.5t56.5 -142.5t-56.5 -142.5t-142.5 -56.5t-142 56.5t-56 142.5zM416 952q0 86 56 142.5t142 56.5t142.5 -56.5t56.5 -142.5t-56.5 -142t-142.5 -56t-142 56t-56 142z" />
<glyph unicode="&#xf8;" d="M57 551q0 141 22.5 249.5t74 181.5t134.5 110.5t204 37.5q137 2 223 -43l69 134l90 -47l-75 -144q72 -70 99.5 -188.5t27.5 -290.5q0 -141 -22.5 -249.5t-74 -181.5t-134.5 -111t-203 -38q-139 -4 -224 43l-69 -133l-90 47l75 144q-72 70 -99.5 188.5t-27.5 290.5z M340 461q0 -23 1 -42.5t3 -37.5h4l252 487q-33 70 -108 70q-53 0 -83 -28.5t-45.5 -80t-19.5 -123t-4 -155.5v-90zM381 231q33 -68 111 -67q86 0 118.5 90t32.5 297q0 49 -1 91t-3 77h-4z" />
<glyph unicode="&#xf9;" horiz-adv-x="1024" d="M94 285v817h283v-760q0 -86 28.5 -120t92.5 -34q150 0 149 183v731h283v-1102h-271v129h-4q-45 -82 -116.5 -120t-163.5 -38q-135 0 -208 74t-73 240zM246 1528h283l110 -295h-192z" />
<glyph unicode="&#xfa;" horiz-adv-x="1024" d="M94 285v817h283v-760q0 -86 28.5 -120t92.5 -34q150 0 149 183v731h283v-1102h-271v129h-4q-45 -82 -116.5 -120t-163.5 -38q-135 0 -208 74t-73 240zM409 1233l111 295h282l-200 -295h-193z" />
<glyph unicode="&#xfb;" horiz-adv-x="1024" d="M94 285v817h283v-760q0 -86 28.5 -120t92.5 -34q150 0 149 183v731h283v-1102h-271v129h-4q-45 -82 -116.5 -120t-163.5 -38q-135 0 -208 74t-73 240zM205 1233l160 295h295l160 -295h-218l-94 174l-98 -174h-205z" />
<glyph unicode="&#xfc;" horiz-adv-x="1024" d="M94 285v817h283v-760q0 -86 28.5 -120t92.5 -34q150 0 149 183v731h283v-1102h-271v129h-4q-45 -82 -116.5 -120t-163.5 -38q-135 0 -208 74t-73 240zM222 1260v241h229v-241h-229zM574 1260v241h229v-241h-229z" />
<glyph unicode="&#xfd;" horiz-adv-x="909" d="M10 1102h295l164 -762h4l143 762h283l-266 -1028q-12 -78 -58.5 -196t-92.5 -164t-110.5 -60t-162.5 -14h-115v210q37 -6 74 -6q78 0 111.5 41t39.5 115zM364 1233l111 295h282l-200 -295h-193z" />
<glyph unicode="&#xfe;" horiz-adv-x="1024" d="M94 -360v1822h283v-477h4q37 78 94 111.5t143 33.5q174 0 256 -136t82 -443t-81.5 -443.5t-256.5 -136.5q-80 0 -136 33t-101 98h-4v-462h-283zM377 551q0 -180 27.5 -271.5t121.5 -91.5q92 0 120 91.5t28 271.5t-28 271t-120 91q-94 0 -121.5 -91t-27.5 -271z" />
<glyph unicode="&#xff;" horiz-adv-x="909" d="M10 1102h295l164 -762h4l143 762h283l-266 -1028q-12 -78 -58.5 -196t-92.5 -164t-110.5 -60t-162.5 -14h-115v210q37 -6 74 -6q78 0 111.5 41t39.5 115zM183 1260v241h229v-241h-229zM535 1260v241h229v-241h-229z" />
<glyph unicode="&#x152;" horiz-adv-x="1593" d="M72 748q0 141 15 275t62.5 238.5t134.5 167t230 62.5q78 0 153.5 -22.5t112.5 -84.5h4v78h748v-241h-496v-344h465v-242h-465v-393h512v-242h-764v84h-4q-12 -27 -38.5 -48.5t-62.5 -35.5t-75 -21.5t-76 -7.5q-160 0 -252 66.5t-137 175.5t-56 249t-11 286zM367 731 q0 -145 6 -248.5t27.5 -169t61.5 -95.5t107 -30q66 0 103 27t55 90.5t22.5 168t4.5 257.5q0 154 -4.5 258.5t-22.5 168t-55 90t-103 26.5q-68 0 -107.5 -30t-61 -95.5t-27.5 -169t-6 -248.5z" />
<glyph unicode="&#x153;" horiz-adv-x="1517" d="M59 551q0 141 22.5 249.5t74 181.5t134.5 110.5t204 37.5q117 0 184 -37.5t108 -115.5q41 76 114 114.5t155 38.5q123 0 201.5 -39.5t123.5 -112.5t61.5 -176.5t16.5 -230.5v-63h-559v-88q0 -49 7 -95t23.5 -82t43 -57.5t65.5 -21.5q72 0 105 51t45 156h254 q-8 -193 -100.5 -296.5t-282.5 -103.5q-129 0 -196.5 50.5t-90.5 111.5q-29 -78 -113 -120t-190 -42q-119 0 -197.5 37t-126 109.5t-67 181.5t-19.5 252zM342 551q0 -84 4 -155.5t19.5 -123t47.5 -80t85 -28.5q84 0 115.5 90t31.5 297t-32.5 297t-118.5 90q-53 0 -83 -28.5 t-45.5 -80t-19.5 -123t-4 -155.5zM899 676h289q-2 63 -8 111.5t-21.5 82t-43.5 51t-71 17.5t-70.5 -19.5t-44 -51t-23.5 -70.5t-7 -78v-43z" />
<glyph unicode="&#x178;" horiz-adv-x="1064" d="M6 1462h332l192 -565h5l204 565h320l-379 -887v-575h-295v575zM242 1575v241h229v-241h-229zM594 1575v241h229v-241h-229z" />
<glyph unicode="&#x2c6;" horiz-adv-x="454" d="M-80 1233l160 295h295l160 -295h-218l-94 174l-98 -174h-205z" />
<glyph unicode="&#x2dc;" horiz-adv-x="454" d="M-94 1251q16 123 64 188.5t126 65.5q57 0 88 -14l99 -43q31 -12 61 -12q29 0 43 26.5t14 46.5h148q-10 -111 -61.5 -182.5t-129.5 -71.5q-33 0 -65.5 11.5t-64 24t-60.5 23.5t-53 11q-51 0 -66 -74h-143z" />
<glyph unicode="&#x2000;" horiz-adv-x="976" />
<glyph unicode="&#x2001;" horiz-adv-x="1953" />
<glyph unicode="&#x2002;" horiz-adv-x="976" />
<glyph unicode="&#x2003;" horiz-adv-x="1953" />
<glyph unicode="&#x2004;" horiz-adv-x="651" />
<glyph unicode="&#x2005;" horiz-adv-x="488" />
<glyph unicode="&#x2006;" horiz-adv-x="325" />
<glyph unicode="&#x2007;" horiz-adv-x="325" />
<glyph unicode="&#x2008;" horiz-adv-x="244" />
<glyph unicode="&#x2009;" horiz-adv-x="390" />
<glyph unicode="&#x200a;" horiz-adv-x="108" />
<glyph unicode="&#x2010;" horiz-adv-x="757" d="M90 471v242h578v-242h-578z" />
<glyph unicode="&#x2011;" horiz-adv-x="757" d="M90 471v242h578v-242h-578z" />
<glyph unicode="&#x2012;" horiz-adv-x="757" d="M90 471v242h578v-242h-578z" />
<glyph unicode="&#x2013;" horiz-adv-x="1024" d="M0 477v230h1024v-230h-1024z" />
<glyph unicode="&#x2014;" horiz-adv-x="2048" d="M0 477v230h2048v-230h-2048z" />
<glyph unicode="&#x2018;" horiz-adv-x="532" d="M131 805v266q0 82 11.5 150.5t42 119t82.5 82t134 39.5v-143q-53 -10 -79.5 -57.5t-26.5 -104.5v-33h106v-319h-270z" />
<glyph unicode="&#x2019;" horiz-adv-x="532" d="M131 805v143q53 10 80 57.5t27 104.5v33h-107v319h270v-266q0 -82 -11 -150.5t-42 -118.5t-83 -82t-134 -40z" />
<glyph unicode="&#x201a;" horiz-adv-x="532" d="M131 0v319h270v-266q0 -82 -11 -150.5t-42 -118.5t-83 -82t-134 -40v143q53 10 80 57.5t27 104.5v33h-107z" />
<glyph unicode="&#x201c;" horiz-adv-x="948" d="M139 805v266q0 82 11.5 150.5t42 119t83 82t134.5 39.5v-143q-53 -10 -80 -57.5t-27 -104.5v-33h107v-319h-271zM539 805v266q0 82 11 150.5t42 119t83 82t134 39.5v-143q-53 -10 -80 -57.5t-27 -104.5v-33h107v-319h-270z" />
<glyph unicode="&#x201d;" horiz-adv-x="948" d="M139 805v143q53 10 80 57.5t27 104.5v33h-107v319h271v-266q0 -82 -11.5 -150.5t-42 -118.5t-83 -82t-134.5 -40zM539 805v143q53 10 79.5 57.5t26.5 104.5v33h-106v319h270v-266q0 -82 -11.5 -150.5t-42 -118.5t-82.5 -82t-134 -40z" />
<glyph unicode="&#x201e;" horiz-adv-x="948" d="M139 0v319h271v-266q0 -82 -11.5 -150.5t-42 -118.5t-83 -82t-134.5 -40v143q53 10 80 57.5t27 104.5v33h-107zM539 0v319h270v-266q0 -82 -11.5 -150.5t-42 -118.5t-82.5 -82t-134 -40v143q53 10 79.5 57.5t26.5 104.5v33h-106z" />
<glyph unicode="&#x2022;" horiz-adv-x="1024" d="M147 731q0 76 29 142.5t78 115.5t115.5 78t142.5 29t142.5 -29t115.5 -78t78 -115.5t29 -142.5t-29 -142.5t-78 -115.5t-115.5 -77.5t-142.5 -28.5t-142.5 28.5t-115.5 77.5t-78 115.5t-29 142.5z" />
<glyph unicode="&#x2026;" horiz-adv-x="2048" d="M207 0v319h270v-319h-270zM889 0v319h270v-319h-270zM1571 0v319h270v-319h-270z" />
<glyph unicode="&#x202f;" horiz-adv-x="390" />
<glyph unicode="&#x2039;" horiz-adv-x="493" d="M94 426v332l305 246v-271l-161 -141l161 -141v-271z" />
<glyph unicode="&#x203a;" horiz-adv-x="493" d="M94 180v271l162 141l-162 141v271l305 -246v-332z" />
<glyph unicode="&#x205f;" horiz-adv-x="488" />
<glyph unicode="&#x20ac;" d="M53 528l60 160h77l3 105h-140l62 159h84q43 504 467 504q182 0 315 -102l-94 -205q-98 104 -203 104q-117 0 -160 -100q-14 -31 -22 -81t-13 -120h345l-60 -159h-291v-105h271l-60 -160h-207q6 -164 27 -221q39 -125 156 -125q109 0 264 137v-256q-158 -92 -309 -92 q-414 0 -430 557h-142z" />
<glyph unicode="&#x2122;" horiz-adv-x="2027" d="M63 1270v192h689v-192h-230v-656h-229v656h-230zM905 614v848h346l170 -512h4l170 512h347v-848h-218v582h-4l-194 -582h-205l-195 582h-4v-582h-217z" />
<glyph unicode="&#x25fc;" horiz-adv-x="1105" d="M0 0v1106h1106v-1106h-1106z" />
</font>
</defs>
</svg>
